SHARE
TWEET

Untitled

a guest Oct 21st, 2019 86 Never
Not a member of Pastebin yet? Sign Up, it unlocks many cool features!
  1. General
  2. Unique ID                                : 206477493859050800520582433194277853876 (0x9B561E6B6A27A6B8B4187E926373DAB4)
  3. Complete name                            : The.Kitchen.2019.720p.BluRay.x264-DRONES
  4. Format                                   : Matroska
  5. Format version                           : Version 4
  6. File size                                : 4.37 GiB
  7. Duration                                 : 1 h 42 min
  8. Overall bit rate                         : 6 094 kb/s
  9. Encoded date                             : UTC 2019-10-22 00:59:40
  10. Writing application                      : mkvmerge v8.3.0 ('Over the Horizon') 64bit
  11. Writing library                          : libebml v1.3.1 + libmatroska v1.4.2
  12.  
  13. Video
  14. ID                                       : 1
  15. Format                                   : AVC
  16. Format/Info                              : Advanced Video Codec
  17. Format profile                           : High@L4.1
  18. Format settings                          : CABAC / 5 Ref Frames
  19. Format settings, CABAC                   : Yes
  20. Format settings, Reference frames        : 5 frames
  21. Codec ID                                 : V_MPEG4/ISO/AVC
  22. Duration                                 : 1 h 42 min
  23. Bit rate                                 : 4 586 kb/s
  24. Width                                    : 1 280 pixels
  25. Height                                   : 536 pixels
  26. Display aspect ratio                     : 2.40:1
  27. Frame rate mode                          : Constant
  28. Frame rate                               : 23.976 (24000/1001) FPS
  29. Color space                              : YUV
  30. Chroma subsampling                       : 4:2:0
  31. Bit depth                                : 8 bits
  32. Scan type                                : Progressive
  33. Bits/(Pixel*Frame)                       : 0.279
  34. Stream size                              : 3.29 GiB (75%)
  35. Writing library                          : x264 core 158 r2984 3759fcb
  36. Encoding settings                        : cabac=1 / ref=5 / deblock=1:-3:-3 / analyse=0x3:0x113 / me=umh / subme=8 / psy=1 / psy_rd=1.00:0.00 / mixed_ref=1 / me_range=16 / chroma_me=1 / trellis=1 / 8x8dct=1 / cqm=0 / deadzone=21,11 / fast_pskip=1 / chroma_qp_offset=-2 / threads=17 / lookahead_threads=2 / sliced_threads=0 / nr=0 / decimate=1 / interlaced=0 / bluray_compat=0 / constrained_intra=0 / bframes=3 / b_pyramid=2 / b_adapt=1 / b_bias=0 / direct=3 / weightb=1 / open_gop=0 / weightp=2 / keyint=250 / keyint_min=23 / scenecut=40 / intra_refresh=0 / rc_lookahead=50 / rc=2pass / mbtree=1 / bitrate=4586 / ratetol=1.0 / qcomp=0.60 / qpmin=0 / qpmax=69 / qpstep=4 / cplxblur=20.0 / qblur=0.5 / ip_ratio=1.40 / aq=1:1.00
  37. Language                                 : English
  38. Default                                  : Yes
  39. Forced                                   : No
  40.  
  41. Audio
  42. ID                                       : 2
  43. Format                                   : DTS
  44. Format/Info                              : Digital Theater Systems
  45. Codec ID                                 : A_DTS
  46. Duration                                 : 1 h 42 min
  47. Bit rate mode                            : Constant
  48. Bit rate                                 : 1 509 kb/s
  49. Channel(s)                               : 6 channels
  50. Channel layout                           : C L R Ls Rs LFE
  51. Sampling rate                            : 48.0 kHz
  52. Frame rate                               : 93.750 FPS (512 SPF)
  53. Bit depth                                : 24 bits
  54. Compression mode                         : Lossy
  55. Stream size                              : 1.08 GiB (25%)
  56. Language                                 : English
  57. Default                                  : Yes
  58. Forced                                   : No
  59.  
  60. Menu
  61. 00:00:00.000                             : en:00:00:00.000
  62. 00:09:26.274                             : en:00:09:26.274
  63. 00:17:09.987                             : en:00:17:09.987
  64. 00:27:10.838                             : en:00:27:10.838
  65. 00:37:37.755                             : en:00:37:37.755
  66. 00:44:59.280                             : en:00:44:59.280
  67. 00:54:26.847                             : en:00:54:26.847
  68. 01:03:54.706                             : en:01:03:54.706
  69. 01:12:23.130                             : en:01:12:23.130
  70. 01:22:20.936                             : en:01:22:20.936
  71. 01:30:38.558                             : en:01:30:38.558
  72. 01:37:28.384                             : en:01:37:28.384
RAW Paste Data
We use cookies for various purposes including analytics. By continuing to use Pastebin, you agree to our use of cookies as described in the Cookies Policy. OK, I Understand
 
Top