SHARE
TWEET

halloween.2018.1080p.bluray.x264-sparks.mkv

iMN0 Jan 4th, 2019 88 Never
Not a member of Pastebin yet? Sign Up, it unlocks many cool features!
  1. General
  2. Unique ID                                : 46899145914264410113018640571550774308 (0x2348726B33470F55F7F466E24D15B424)
  3. Complete name                            : halloween.2018.1080p.bluray.x264-sparks.mkv
  4. Format                                   : Matroska
  5. Format version                           : Version 4 / Version 2
  6. File size                                : 7.65 GiB
  7. Duration                                 : 1h 45mn
  8. Overall bit rate                         : 10.4 Mbps
  9. Encoded date                             : UTC 2019-01-04 22:22:53
  10. Writing application                      : mkvmerge v22.0.0 ('At The End Of The World') 64-bit
  11. Writing library                          : libebml v1.3.5 + libmatroska v1.4.8
  12.  
  13. Video
  14. ID                                       : 1
  15. Format                                   : AVC
  16. Format/Info                              : Advanced Video Codec
  17. Format profile                           : High@L4.1
  18. Format settings, CABAC                   : Yes
  19. Format settings, ReFrames                : 5 frames
  20. Codec ID                                 : V_MPEG4/ISO/AVC
  21. Duration                                 : 1h 45mn
  22. Bit rate                                 : 8 845 Kbps
  23. Width                                    : 1 920 pixels
  24. Height                                   : 808 pixels
  25. Display aspect ratio                     : 2.40:1
  26. Frame rate mode                          : Constant
  27. Frame rate                               : 23.976 (24000/1001) fps
  28. Color space                              : YUV
  29. Chroma subsampling                       : 4:2:0
  30. Bit depth                                : 8 bits
  31. Scan type                                : Progressive
  32. Bits/(Pixel*Frame)                       : 0.238
  33. Stream size                              : 6.54 GiB (85%)
  34. Writing library                          : x264 core 157 r2935 545de2f
  35. Encoding settings                        : cabac=1 / ref=5 / deblock=1:-3:-3 / analyse=0x3:0x133 / me=umh / subme=8 / psy=1 / psy_rd=1.00:0.00 / mixed_ref=1 / me_range=16 / chroma_me=1 / trellis=1 / 8x8dct=1 / cqm=0 / deadzone=21,11 / fast_pskip=0 / chroma_qp_offset=-2 / threads=25 / lookahead_threads=4 / sliced_threads=0 / nr=0 / decimate=1 / interlaced=0 / bluray_compat=0 / constrained_intra=0 / bframes=3 / b_pyramid=2 / b_adapt=1 / b_bias=0 / direct=3 / weightb=1 / open_gop=0 / weightp=2 / keyint=250 / keyint_min=23 / scenecut=40 / intra_refresh=0 / rc_lookahead=50 / rc=2pass / mbtree=1 / bitrate=8845 / ratetol=1.0 / qcomp=0.60 / qpmin=0 / qpmax=69 / qpstep=4 / cplxblur=20.0 / qblur=0.5 / vbv_maxrate=62500 / vbv_bufsize=78125 / nal_hrd=none / filler=0 / ip_ratio=1.40 / aq=1:1.00
  36. Default                                  : Yes
  37. Forced                                   : No
  38.  
  39. Audio
  40. ID                                       : 2
  41. Format                                   : DTS
  42. Format/Info                              : Digital Theater Systems
  43. Mode                                     : 16
  44. Format settings, Endianness              : Big
  45. Codec ID                                 : A_DTS
  46. Duration                                 : 1h 45mn
  47. Bit rate mode                            : Constant
  48. Bit rate                                 : 1 509 Kbps
  49. Channel(s)                               : 6 channels
  50. Channel positions                        : Front: L C R, Side: L R, LFE
  51. Sampling rate                            : 48.0 KHz
  52. Frame rate                               : 93.750 fps (512 spf)
  53. Bit depth                                : 24 bits
  54. Compression mode                         : Lossy
  55. Stream size                              : 1.12 GiB (15%)
  56. Language                                 : English
  57. Default                                  : Yes
  58. Forced                                   : No
  59.  
  60. Menu
  61. 00:00:00.000                             : en:00:00:00.000
  62. 00:08:42.522                             : en:00:08:42.522
  63. 00:14:26.949                             : en:00:14:26.949
  64. 00:20:46.996                             : en:00:20:46.996
  65. 00:23:17.855                             : en:00:23:17.855
  66. 00:27:45.080                             : en:00:27:45.080
  67. 00:32:55.724                             : en:00:32:55.724
  68. 00:40:51.366                             : en:00:40:51.366
  69. 00:44:41.053                             : en:00:44:41.053
  70. 00:48:26.403                             : en:00:48:26.403
  71. 00:53:26.453                             : en:00:53:26.453
  72. 00:59:18.597                             : en:00:59:18.597
  73. 01:03:22.340                             : en:01:03:22.340
  74. 01:07:29.629                             : en:01:07:29.629
  75. 01:14:46.524                             : en:01:14:46.524
  76. 01:18:10.561                             : en:01:18:10.561
  77. 01:22:04.837                             : en:01:22:04.837
  78. 01:30:09.904                             : en:01:30:09.904
  79. 01:35:33.394                             : en:01:35:33.394
  80. 01:40:41.494                             : en:01:40:41.494
RAW Paste Data
We use cookies for various purposes including analytics. By continuing to use Pastebin, you agree to our use of cookies as described in the Cookies Policy. OK, I Understand
Top