SHARE
TWEET

Untitled

Secasa Apr 20th, 2017 5 Never
Not a member of Pastebin yet? Sign Up, it unlocks many cool features!
  1. Format                         : BDAV
  2. Format/Info                    : Blu-ray Video
  3. File size                      : 29.6 GiB
  4. Duration                       : 1 h 55 min
  5. Overall bit rate mode          : Variable
  6. Overall bit rate               : 36.7 Mb/s
  7. Maximum Overall bit rate       : 48.0 Mb/s
  8.  
  9. Video
  10. ID                             : 4113 (0x1011)
  11. Menu ID                        : 1 (0x1)
  12. Format                         : AVC
  13. Format/Info                    : Advanced Video Codec
  14. Format profile                 : High@L4.1
  15. Format settings, CABAC         : Yes
  16. Format settings, ReFrames      : 4 frames
  17. Codec ID                       : 27
  18. Duration                       : 1 h 55 min
  19. Bit rate mode                  : Variable
  20. Maximum bit rate               : 33.0 Mb/s
  21. Width                          : 1 920 pixels
  22. Height                         : 1 080 pixels
  23. Display aspect ratio           : 16:9
  24. Frame rate                     : 23.976 (24000/1001) FPS
  25. Color space                    : YUV
  26. Chroma subsampling             : 4:2:0
  27. Bit depth                      : 8 bits
  28. Scan type                      : Progressive
  29.  
  30. Audio #1
  31. ID                             : 4352 (0x1100)
  32. Menu ID                        : 1 (0x1)
  33. Format                         : DTS
  34. Format/Info                    : Digital Theater Systems
  35. Format profile                 : MA / Core
  36. Mode                           : 16
  37. Format settings, Endianness    : Big
  38. Muxing mode                    : Stream extension
  39. Codec ID                       : 134
  40. Duration                       : 1 h 55 min
  41. Bit rate mode                  : Variable / Constant
  42. Bit rate                       : Unknown / 1 509 kb/s
  43. Channel(s)                     : 8 channels / 6 channels
  44. Channel positions              : Front: L C R, Side: L R, Back: L R, LFE / Front: L C R, Side: L R, LFE
  45. Sampling rate                  : 48.0 kHz
  46. Frame rate                     : 93.750 FPS (512 spf)
  47. Bit depth                      : 24 bits
  48. Compression mode               : Lossless / Lossy
  49.  
  50. Audio #2
  51. ID                             : 4353 (0x1101)
  52. Menu ID                        : 1 (0x1)
  53. Format                         : DTS
  54. Format/Info                    : Digital Theater Systems
  55. Mode                           : 16
  56. Format settings, Endianness    : Big
  57. Codec ID                       : 130
  58. Duration                       : 1 h 55 min
  59. Bit rate mode                  : Constant
  60. Bit rate                       : 768 kb/s
  61. Channel(s)                     : 6 channels
  62. Channel positions              : Front: L C R, Side: L R, LFE
  63. Sampling rate                  : 48.0 kHz
  64. Frame rate                     : 93.750 FPS (512 spf)
  65. Bit depth                      : 24 bits
  66. Compression mode               : Lossy
  67. Stream size                    : 635 MiB (2%)
  68.  
  69. Audio #3
  70. ID                             : 4354 (0x1102)
  71. Menu ID                        : 1 (0x1)
  72. Format                         : DTS
  73. Format/Info                    : Digital Theater Systems
  74. Mode                           : 16
  75. Format settings, Endianness    : Big
  76. Codec ID                       : 130
  77. Duration                       : 1 h 55 min
  78. Bit rate mode                  : Constant
  79. Bit rate                       : 768 kb/s
  80. Channel(s)                     : 6 channels
  81. Channel positions              : Front: L C R, Side: L R, LFE
  82. Sampling rate                  : 48.0 kHz
  83. Frame rate                     : 93.750 FPS (512 spf)
  84. Bit depth                      : 24 bits
  85. Compression mode               : Lossy
  86. Stream size                    : 635 MiB (2%)
  87.  
  88. Audio #4
  89. ID                             : 4355 (0x1103)
  90. Menu ID                        : 1 (0x1)
  91. Format                         : AC-3
  92. Format/Info                    : Audio Coding 3
  93. Mode extension                 : CM (complete main)
  94. Format settings, Endianness    : Big
  95. Codec ID                       : 129
  96. Duration                       : 1 h 55 min
  97. Bit rate mode                  : Constant
  98. Bit rate                       : 448 kb/s
  99. Channel(s)                     : 6 channels
  100. Channel positions              : Front: L C R, Side: L R, LFE
  101. Sampling rate                  : 48.0 kHz
  102. Frame rate                     : 31.250 FPS (1536 spf)
  103. Bit depth                      : 16 bits
  104. Compression mode               : Lossy
  105. Stream size                    : 370 MiB (1%)
  106.  
  107. Audio #5
  108. ID                             : 4356 (0x1104)
  109. Menu ID                        : 1 (0x1)
  110. Format                         : AC-3
  111. Format/Info                    : Audio Coding 3
  112. Mode extension                 : CM (complete main)
  113. Format settings, Endianness    : Big
  114. Codec ID                       : 129
  115. Duration                       : 1 h 55 min
  116. Bit rate mode                  : Constant
  117. Bit rate                       : 448 kb/s
  118. Channel(s)                     : 6 channels
  119. Channel positions              : Front: L C R, Side: L R, LFE
  120. Sampling rate                  : 48.0 kHz
  121. Frame rate                     : 31.250 FPS (1536 spf)
  122. Bit depth                      : 16 bits
  123. Compression mode               : Lossy
  124. Stream size                    : 370 MiB (1%)
  125.  
  126. Audio #6
  127. ID                             : 4357 (0x1105)
  128. Menu ID                        : 1 (0x1)
  129. Format                         : AC-3
  130. Format/Info                    : Audio Coding 3
  131. Mode extension                 : CM (complete main)
  132. Format settings, Endianness    : Big
  133. Codec ID                       : 129
  134. Duration                       : 1 h 55 min
  135. Bit rate mode                  : Constant
  136. Bit rate                       : 448 kb/s
  137. Channel(s)                     : 6 channels
  138. Channel positions              : Front: L C R, Side: L R, LFE
  139. Sampling rate                  : 48.0 kHz
  140. Frame rate                     : 31.250 FPS (1536 spf)
  141. Bit depth                      : 16 bits
  142. Compression mode               : Lossy
  143. Stream size                    : 370 MiB (1%)
  144.  
  145. Audio #7
  146. ID                             : 4358 (0x1106)
  147. Menu ID                        : 1 (0x1)
  148. Format                         : AC-3
  149. Format/Info                    : Audio Coding 3
  150. Mode extension                 : CM (complete main)
  151. Format settings, Endianness    : Big
  152. Codec ID                       : 129
  153. Duration                       : 1 h 55 min
  154. Bit rate mode                  : Constant
  155. Bit rate                       : 448 kb/s
  156. Channel(s)                     : 6 channels
  157. Channel positions              : Front: L C R, Side: L R, LFE
  158. Sampling rate                  : 48.0 kHz
  159. Frame rate                     : 31.250 FPS (1536 spf)
  160. Bit depth                      : 16 bits
  161. Compression mode               : Lossy
  162. Stream size                    : 370 MiB (1%)
  163.  
  164. Audio #8
  165. ID                             : 4359 (0x1107)
  166. Menu ID                        : 1 (0x1)
  167. Format                         : AC-3
  168. Format/Info                    : Audio Coding 3
  169. Mode extension                 : CM (complete main)
  170. Format settings, Endianness    : Big
  171. Codec ID                       : 129
  172. Duration                       : 1 h 55 min
  173. Bit rate mode                  : Constant
  174. Bit rate                       : 448 kb/s
  175. Channel(s)                     : 6 channels
  176. Channel positions              : Front: L C R, Side: L R, LFE
  177. Sampling rate                  : 48.0 kHz
  178. Frame rate                     : 31.250 FPS (1536 spf)
  179. Bit depth                      : 16 bits
  180. Compression mode               : Lossy
  181. Stream size                    : 370 MiB (1%)
  182.  
  183. Text #1
  184. ID                             : 4608 (0x1200)
  185. Menu ID                        : 1 (0x1)
  186. Format                         : PGS
  187. Codec ID                       : 144
  188.  
  189. Text #2
  190. ID                             : 4609 (0x1201)
  191. Menu ID                        : 1 (0x1)
  192. Format                         : PGS
  193. Codec ID                       : 144
  194.  
  195. Text #3
  196. ID                             : 4610 (0x1202)
  197. Menu ID                        : 1 (0x1)
  198. Format                         : PGS
  199. Codec ID                       : 144
  200.  
  201. Text #4
  202. ID                             : 4611 (0x1203)
  203. Menu ID                        : 1 (0x1)
  204. Format                         : PGS
  205. Codec ID                       : 144
  206.  
  207. Text #5
  208. ID                             : 4612 (0x1204)
  209. Menu ID                        : 1 (0x1)
  210. Format                         : PGS
  211. Codec ID                       : 144
  212.  
  213. Text #6
  214. ID                             : 4613 (0x1205)
  215. Menu ID                        : 1 (0x1)
  216. Format                         : PGS
  217. Codec ID                       : 144
  218.  
  219. Text #7
  220. ID                             : 4614 (0x1206)
  221. Menu ID                        : 1 (0x1)
  222. Format                         : PGS
  223. Codec ID                       : 144
  224.  
  225. Text #8
  226. ID                             : 4615 (0x1207)
  227. Menu ID                        : 1 (0x1)
  228. Format                         : PGS
  229. Codec ID                       : 144
  230.  
  231. Text #9
  232. ID                             : 4616 (0x1208)
  233. Menu ID                        : 1 (0x1)
  234. Format                         : PGS
  235. Codec ID                       : 144
  236.  
  237. Text #10
  238. ID                             : 4617 (0x1209)
  239. Menu ID                        : 1 (0x1)
  240. Format                         : PGS
  241. Codec ID                       : 144
  242.  
  243. Text #11
  244. ID                             : 4618 (0x120A)
  245. Menu ID                        : 1 (0x1)
  246. Format                         : PGS
  247. Codec ID                       : 144
  248.  
  249. Text #12
  250. ID                             : 4619 (0x120B)
  251. Menu ID                        : 1 (0x1)
  252. Format                         : PGS
  253. Codec ID                       : 144
  254.  
  255. Text #13
  256. ID                             : 4620 (0x120C)
  257. Menu ID                        : 1 (0x1)
  258. Format                         : PGS
  259. Codec ID                       : 144
  260.  
  261. Text #14
  262. ID                             : 4621 (0x120D)
  263. Menu ID                        : 1 (0x1)
  264. Format                         : PGS
  265. Codec ID                       : 144
  266.  
  267. Text #15
  268. ID                             : 4622 (0x120E)
  269. Menu ID                        : 1 (0x1)
  270. Format                         : PGS
  271. Codec ID                       : 144
  272.  
  273. Text #16
  274. ID                             : 4623 (0x120F)
  275. Menu ID                        : 1 (0x1)
  276. Format                         : PGS
  277. Codec ID                       : 144
  278.  
  279. Text #17
  280. ID                             : 4624 (0x1210)
  281. Menu ID                        : 1 (0x1)
  282. Format                         : PGS
  283. Codec ID                       : 144
  284.  
  285. Text #18
  286. ID                             : 4625 (0x1211)
  287. Menu ID                        : 1 (0x1)
  288. Format                         : PGS
  289. Codec ID                       : 144
  290.  
  291. Text #19
  292. ID                             : 4626 (0x1212)
  293. Menu ID                        : 1 (0x1)
  294. Format                         : PGS
  295. Codec ID                       : 144
  296.  
  297. Text #20
  298. ID                             : 4627 (0x1213)
  299. Menu ID                        : 1 (0x1)
  300. Format                         : PGS
  301. Codec ID                       : 144
  302.  
  303. Text #21
  304. ID                             : 4628 (0x1214)
  305. Menu ID                        : 1 (0x1)
  306. Format                         : PGS
  307. Codec ID                       : 144
  308.  
  309. Text #22
  310. ID                             : 4629 (0x1215)
  311. Menu ID                        : 1 (0x1)
  312. Format                         : PGS
  313. Codec ID                       : 144
  314.  
  315. Text #23
  316. ID                             : 4630 (0x1216)
  317. Menu ID                        : 1 (0x1)
  318. Format                         : PGS
  319. Codec ID                       : 144
  320.  
  321. Text #24
  322. ID                             : 4631 (0x1217)
  323. Menu ID                        : 1 (0x1)
  324. Format                         : PGS
  325. Codec ID                       : 144
RAW Paste Data
Pastebin PRO Summer Special!
Get 40% OFF on Pastebin PRO accounts!
Top