Guest User

Autumn.in.New.York.2000.1080p.BluRay.REMUX.AVC.FLAC.2.0-EPSiLON

a guest
May 7th, 2019
21
Never
Not a member of Pastebin yet? Sign Up, it unlocks many cool features!
  1. General
  2. Complete name                            : Autumn.in.New.York.2000.1080p.BluRay.REMUX.AVC.FLAC.2.0-EPSiLON.mkv
  3. Format                                   : Matroska
  4. Format version                           : Version 4
  5. File size                                : 18.6 GiB
  6. Duration                                 : 1 h 44 min
  7. Overall bit rate mode                    : Variable
  8. Overall bit rate                         : 25.5 Mb/s
  9. Encoded date                             : UTC 2019-03-29 18:34:44
  10. Writing application                      : mkvmerge v32.0.0 ('Astral Progressions') 64-bit
  11. Writing library                          : libebml v1.3.7 + libmatroska v1.5.0
  12. IMDB                                     : tt0174480
  13. TMDB                                     : movie/10641
  14.  
  15. Video
  16. ID                                       : 1
  17. Format                                   : AVC
  18. Format/Info                              : Advanced Video Codec
  19. Format profile                           : High@L4.1
  20. Format settings                          : CABAC / 3 Ref Frames
  21. Format settings, CABAC                   : Yes
  22. Format settings, Reference frames        : 3 frames
  23. Codec ID                                 : V_MPEG4/ISO/AVC
  24. Duration                                 : 1 h 44 min
  25. Bit rate mode                            : Variable
  26. Bit rate                                 : 25.0 Mb/s
  27. Maximum bit rate                         : 40.0 Mb/s
  28. Width                                    : 1 920 pixels
  29. Height                                   : 1 080 pixels
  30. Display aspect ratio                     : 16:9
  31. Frame rate mode                          : Constant
  32. Frame rate                               : 23.976 (24000/1001) FPS
  33. Color space                              : YUV
  34. Chroma subsampling                       : 4:2:0
  35. Bit depth                                : 8 bits
  36. Scan type                                : Progressive
  37. Bits/(Pixel*Frame)                       : 0.503
  38. Stream size                              : 18.1 GiB (98%)
  39. Title                                    : MPEG-4 AVC Video / 24938 kbps / 1080p / 23.976 fps / 16:9 / High Profile 4.1
  40. Writing library                          : x264 core 155 r2901 7d0ff22
  41. Encoding settings                        : cabac=1 / ref=4 / deblock=1:-1:-1 / analyse=0x3:0x113 / me=hex / subme=7 / psy=1 / psy_rd=1.00:0.15 / mixed_ref=1 / me_range=16 / chroma_me=1 / trellis=1 / 8x8dct=1 / cqm=0 / deadzone=21,11 / fast_pskip=1 / chroma_qp_offset=-3 / threads=34 / lookahead_threads=5 / sliced_threads=0 / slices=4 / nr=0 / decimate=1 / interlaced=0 / bluray_compat=1 / constrained_intra=0 / bframes=3 / b_pyramid=1 / b_adapt=2 / b_bias=0 / direct=1 / weightb=1 / open_gop=1 / weightp=1 / keyint=23 / keyint_min=1 / scenecut=40 / intra_refresh=0 / rc_lookahead=23 / rc=2pass / mbtree=1 / bitrate=25000 / ratetol=1.0 / qcomp=0.60 / qpmin=0 / qpmax=69 / qpstep=4 / cplxblur=20.0 / qblur=0.5 / vbv_maxrate=40000 / vbv_bufsize=30000 / nal_hrd=vbr / filler=0 / ip_ratio=1.40 / aq=1:1.00
  42. Language                                 : English
  43. Default                                  : Yes
  44. Forced                                   : No
  45. Color range                              : Limited
  46. Color primaries                          : BT.709
  47. Transfer characteristics                 : BT.709
  48. Matrix coefficients                      : BT.709
  49.  
  50. Audio
  51. ID                                       : 2
  52. Format                                   : FLAC
  53. Format/Info                              : Free Lossless Audio Codec
  54. Codec ID                                 : A_FLAC
  55. Duration                                 : 1 h 44 min
  56. Bit rate mode                            : Variable
  57. Bit rate                                 : 552 kb/s
  58. Channel(s)                               : 2 channels
  59. Channel layout                           : L R
  60. Sampling rate                            : 48.0 kHz
  61. Frame rate                               : 11.719 FPS (4096 SPF)
  62. Bit depth                                : 16 bits
  63. Compression mode                         : Lossless
  64. Stream size                              : 411 MiB (2%)
  65. Title                                    : FLAC Audio / 2.0 / 48 kHz / 552 kbps / 16-bit
  66. Writing library                          : libFLAC 1.2.1 (UTC 2007-09-17)
  67. Language                                 : English
  68. Default                                  : Yes
  69. Forced                                   : No
  70.  
  71. Text #1
  72. ID                                       : 3
  73. Format                                   : PGS
  74. Codec ID                                 : S_HDMV/PGS
  75. Codec ID/Info                            : Picture based subtitle format used on BDs/HD-DVDs
  76. Duration                                 : 1 h 38 min
  77. Bit rate                                 : 18.7 kb/s
  78. Count of elements                        : 2847
  79. Stream size                              : 13.2 MiB (0%)
  80. Title                                    : Canadian
  81. Language                                 : French
  82. Default                                  : No
  83. Forced                                   : No
  84.  
  85. Text #2
  86. ID                                       : 4
  87. Format                                   : PGS
  88. Codec ID                                 : S_HDMV/PGS
  89. Codec ID/Info                            : Picture based subtitle format used on BDs/HD-DVDs
  90. Duration                                 : 1 h 38 min
  91. Bit rate                                 : 16.4 kb/s
  92. Count of elements                        : 2637
  93. Stream size                              : 11.6 MiB (0%)
  94. Title                                    : Latin American
  95. Language                                 : Spanish
  96. Default                                  : No
  97. Forced                                   : No
  98.  
  99. Menu
  100. 00:00:00.000                             : en:Chapter 1
  101. 00:09:21.227                             : en:Chapter 2
  102. 00:17:09.070                             : en:Chapter 3
  103. 00:25:23.564                             : en:Chapter 4
  104. 00:33:23.668                             : en:Chapter 5
  105. 00:40:40.521                             : en:Chapter 6
  106. 00:43:10.588                             : en:Chapter 7
  107. 00:54:07.244                             : en:Chapter 8
  108. 01:01:03.994                             : en:Chapter 9
  109. 01:05:25.922                             : en:Chapter 10
  110. 01:12:31.472                             : en:Chapter 11
  111. 01:19:18.087                             : en:Chapter 12
  112. 01:22:22.271                             : en:Chapter 13
  113. 01:27:36.585                             : en:Chapter 14
  114. 01:33:30.939                             : en:Chapter 15
  115. 01:38:25.233                             : en:Chapter 16
RAW Paste Data