Guest User

Rurouni Kenshin Movie

a guest
Nov 30th, 2017
411
Never
Not a member of Pastebin yet? Sign Up, it unlocks many cool features!
  1. General
  2. Unique ID : 232534890329601066837044714965748233975 (0xAEF097414B46859BBC26184F91C536F7)
  3. Complete name : [DB]Rurouni Kenshin - Requiem For The Restoration Patriots_-_(Dual Audio_10bit_BD1080p_x265).mkv
  4. Format : Matroska
  5. Format version : Version 4 / Version 2
  6. File size : 2.15 GiB
  7. Duration : 1 h 30 min
  8. Overall bit rate : 3 397 kb/s
  9. Encoded date : UTC 2017-10-02 20:14:45
  10. Writing application : mkvmerge v15.0.0 ('Duel with the Devil') 64-bit
  11. Writing library : libebml v1.3.5 + libmatroska v1.4.5
  12. Attachments : epgyobld.ttf / epgyobld_0.ttf / epgyobld_1.ttf / FRSCRIPT.TTF / HIGHMIM.TTF / Marker_SD_Italic.ttf / meiryob_0.ttc / meiryob_1.ttc / WorkingCredits.ttf
  13.  
  14. Video
  15. ID : 1
  16. Format : HEVC
  17. Format/Info : High Efficiency Video Coding
  18. Format profile : Main 10@L4@Main
  19. Codec ID : V_MPEGH/ISO/HEVC
  20. Duration : 1 h 30 min
  21. Bit rate : 2 775 kb/s
  22. Width : 1 920 pixels
  23. Height : 1 080 pixels
  24. Display aspect ratio : 16:9
  25. Frame rate mode : Constant
  26. Frame rate : 23.976 (24000/1001) FPS
  27. Color space : YUV
  28. Chroma subsampling : 4:2:0
  29. Bit depth : 10 bits
  30. Bits/(Pixel*Frame) : 0.056
  31. Stream size : 1.76 GiB (82%)
  32. Writing library : x265 2.4+14-bc0e9bd7c08f5ddc:[Windows][GCC 6.3.0][64 bit] 10bit: KG7x [x265.ru]
  33. Encoding settings : cpuid=1173503 / frame-threads=3 / numa-pools=8 / wpp / no-pmode / no-pme / no-psnr / no-ssim / log-level=2 / input-csp=1 / input-res=1920x1080 / interlace=0 / total-frames=130632 / level-idc=0 / high-tier=1 / uhd-bd=0 / ref=3 / no-allow-non-conformance / no-repeat-headers / annexb / no-aud / no-hrd / info / hash=0 / no-temporal-layers / open-gop / min-keyint=23 / keyint=250 / bframes=4 / b-adapt=2 / b-pyramid / bframe-bias=0 / rc-lookahead=20 / lookahead-slices=6 / scenecut=40 / no-intra-refresh / ctu=64 / min-cu-size=8 / no-rect / no-amp / max-tu-size=32 / tu-inter-depth=1 / tu-intra-depth=1 / limit-tu=0 / rdoq-level=0 / dynamic-rd=0.00 / no-ssim-rd / signhide / no-tskip / nr-intra=0 / nr-inter=0 / no-constrained-intra / strong-intra-smoothing / max-merge=2 / limit-refs=3 / no-limit-modes / me=1 / subme=2 / merange=57 / temporal-mvp / weightp / no-weightb / no-analyze-src-pics / deblock=0:0 / sao / no-sao-non-deblock / rd=3 / no-early-skip / rskip / no-fast-intra / no-tskip-fast / no-cu-lossless / no-b-intra / rdpenalty=0 / psy-rd=2.00 / psy-rdoq=0.00 / no-rd-refine / analysis-mode=0 / no-lossless / cbqpoffs=0 / crqpoffs=0 / rc=crf / crf=21.0 / qcomp=0.60 / qpstep=4 / stats-write=0 / stats-read=0 / ipratio=1.40 / pbratio=1.30 / aq-mode=1 / aq-strength=1.00 / cutree / zone-count=0 / no-strict-cbr / qg-size=32 / no-rc-grain / qpmax=69 / qpmin=0 / sar=1 / overscan=0 / videoformat=5 / range=0 / colorprim=2 / transfer=2 / colormatrix=2 / chromaloc=0 / display-window=0 / max-cll=0,0 / min-luma=0 / max-luma=1023 / log2-max-poc-lsb=8 / vui-timing-info / vui-hrd-info / slices=1 / opt-qp-pps / opt-ref-list-length-pps / no-multi-pass-opt-rps / scenecut-bias=0.05 / no-opt-cu-delta-qp / no-aq-motion / no-hdr / no-hdr-opt / no-dhdr10-opt / refine-level=5 / no-limit-sao / ctu-info=0
  34. Default : Yes
  35. Forced : No
  36.  
  37. Audio #1
  38. ID : 2
  39. Format : AAC
  40. Format/Info : Advanced Audio Codec
  41. Format profile : LC
  42. Codec ID : A_AAC-2
  43. Duration : 1 h 30 min
  44. Bit rate : 150 kb/s
  45. Channel(s) : 2 channels
  46. Channel positions : Front: L R
  47. Sampling rate : 48.0 kHz
  48. Frame rate : 46.875 FPS (1024 SPF)
  49. Compression mode : Lossy
  50. Delay relative to video : 9 ms
  51. Stream size : 97.5 MiB (4%)
  52. Title : 2.0 DTS English
  53. Language : English
  54. Default : Yes
  55. Forced : No
  56.  
  57. Audio #2
  58. ID : 3
  59. Format : AAC
  60. Format/Info : Advanced Audio Codec
  61. Format profile : LC
  62. Codec ID : A_AAC-2
  63. Duration : 1 h 30 min
  64. Bit rate : 400 kb/s
  65. Channel(s) : 6 channels
  66. Channel positions : Front: L C R, Side: L R, LFE
  67. Sampling rate : 48.0 kHz
  68. Frame rate : 46.875 FPS (1024 SPF)
  69. Compression mode : Lossy
  70. Delay relative to video : 9 ms
  71. Stream size : 260 MiB (12%)
  72. Title : 5.1 DTS Japanese
  73. Language : Japanese
  74. Default : No
  75. Forced : No
  76.  
  77. Text
  78. ID : 4
  79. Format : ASS
  80. Codec ID : S_TEXT/ASS
  81. Codec ID/Info : Advanced Sub Station Alpha
  82. Duration : 1 h 29 min
  83. Bit rate : 109 b/s
  84. Count of elements : 1156
  85. Compression mode : Lossless
  86. Stream size : 72.0 KiB (0%)
  87. Language : English
  88. Default : Yes
  89. Forced : Yes
  90.  
  91. Menu
  92. 00:00:00.000 : en:Company Credits / :(unnamed)
  93. 00:00:00.190 : en:Prologue
  94. 00:03:55.780 : en:OP
  95. 00:06:06.540 : en:Part A
  96. 00:11:48.260 : en:Part B
  97. 00:25:12.280 : en:Part C
  98. 00:34:31.070 : en:Part D
  99. 00:56:16.000 : en:Part E
  100. 01:27:14.270 : en:ED
RAW Paste Data