Guest User

Media Info detailed

a guest
Oct 18th, 2020
14
Never
Not a member of Pastebin yet? Sign Up, it unlocks many cool features!
  1. General
  2. Complete name : C:\Users\Phil\Google Drive\Video Game Screen Capture\HLA Carl 008 teacup 2020-06-02 22-49-47.mp4
  3. Format : MPEG-4
  4. Format profile : Base Media / Version 2
  5. Codec ID : mp42 (isom/iso2/mp41)
  6. File size : 56.8 MiB
  7. Duration : 1 min 10 s
  8. Overall bit rate : 6 799 kb/s
  9. Encoded date : UTC 2020-06-05 04:36:01
  10. Tagged date : UTC 2020-06-05 04:36:01
  11. Writing application : HandBrake 1.3.1 2020010400
  12.  
  13. Video
  14. ID : 1
  15. Format : HEVC
  16. Format/Info : High Efficiency Video Coding
  17. Format profile : Main@L5@Main
  18. Codec ID : hvc1
  19. Codec ID/Info : High Efficiency Video Coding
  20. Duration : 1 min 10 s
  21. Bit rate : 5 872 kb/s
  22. Width : 2 560 pixels
  23. Height : 1 440 pixels
  24. Display aspect ratio : 16:9
  25. Frame rate mode : Constant
  26. Frame rate : 60.000 FPS
  27. Color space : YUV
  28. Chroma subsampling : 4:2:0
  29. Bit depth : 8 bits
  30. Bits/(Pixel*Frame) : 0.027
  31. Stream size : 49.0 MiB (86%)
  32. Writing library : x265 3.2.1+1-b5c86a64bbbe:[Windows][GCC 9.2.0][64 bit] 8bit+10bit+12bit
  33. Encoding settings : cpuid=1111039 / frame-threads=3 / numa-pools=12 / wpp / no-pmode / no-pme / no-psnr / no-ssim / log-level=2 / input-csp=1 / input-res=2560x1440 / interlace=0 / total-frames=0 / level-idc=0 / high-tier=1 / uhd-bd=0 / ref=3 / no-allow-non-conformance / no-repeat-headers / annexb / no-aud / no-hrd / info / hash=0 / no-temporal-layers / open-gop / min-keyint=60 / keyint=600 / gop-lookahead=0 / bframes=4 / b-adapt=0 / b-pyramid / bframe-bias=0 / rc-lookahead=15 / lookahead-slices=8 / scenecut=40 / radl=0 / no-splice / no-intra-refresh / ctu=64 / min-cu-size=8 / no-rect / no-amp / max-tu-size=32 / tu-inter-depth=1 / tu-intra-depth=1 / limit-tu=0 / rdoq-level=0 / dynamic-rd=0.00 / no-ssim-rd / signhide / no-tskip / nr-intra=0 / nr-inter=0 / no-constrained-intra / strong-intra-smoothing / max-merge=2 / limit-refs=3 / no-limit-modes / me=1 / subme=2 / merange=57 / temporal-mvp / no-hme / weightp / no-weightb / no-analyze-src-pics / deblock=0:0 / sao / no-sao-non-deblock / rd=2 / selective-sao=4 / no-early-skip / rskip / fast-intra / no-tskip-fast / no-cu-lossless / no-b-intra / no-splitrd-skip / rdpenalty=0 / psy-rd=2.00 / psy-rdoq=0.00 / no-rd-refine / no-lossless / cbqpoffs=0 / crqpoffs=0 / rc=crf / crf=21.0 / qcomp=0.60 / qpstep=4 / stats-write=0 / stats-read=0 / ipratio=1.40 / pbratio=1.30 / aq-mode=2 / aq-strength=1.00 / cutree / zone-count=0 / no-strict-cbr / qg-size=32 / no-rc-grain / qpmax=69 / qpmin=0 / no-const-vbv / sar=1 / overscan=0 / videoformat=5 / range=0 / colorprim=1 / transfer=1 / colormatrix=5 / chromaloc=0 / display-window=0 / cll=0,0 / min-luma=0 / max-luma=255 / log2-max-poc-lsb=8 / vui-timing-info / vui-hrd-info / slices=1 / no-opt-qp-pps / no-opt-ref-list-length-pps / no-multi-pass-opt-rps / scenecut-bias=0.05 / no-opt-cu-delta-qp / no-aq-motion / no-hdr / no-hdr-opt / no-dhdr10-opt / no-idr-recovery-sei / analysis-reuse-level=5 / scale-factor=0 / refine-intra=0 / refine-inter=0 / refine-mv=1 / refine-ctu-distortion=0 / no-limit-sao / ctu-info=0 / no-lowpass-dct / refine-analysis-type=0 / copy-pic=1 / max-ausize-factor=1.0 / no-dynamic-refine / no-single-sei / no-hevc-aq / no-svt / no-field / qp-adaptation-range=1.00
  34. Encoded date : UTC 2020-06-05 04:36:01
  35. Tagged date : UTC 2020-06-05 04:36:01
  36. Color range : Limited
  37. Color primaries : BT.709
  38. Transfer characteristics : BT.709
  39. Matrix coefficients : BT.470 System B/G
  40. Codec configuration box : hvcC
  41.  
  42. Audio #1
  43. ID : 2
  44. Format : AAC LC
  45. Format/Info : Advanced Audio Codec Low Complexity
  46. Codec ID : mp4a-40-2
  47. Duration : 1 min 10 s
  48. Bit rate mode : Constant
  49. Bit rate : 322 kb/s
  50. Channel(s) : 2 channels
  51. Channel layout : L R
  52. Sampling rate : 48.0 kHz
  53. Frame rate : 46.875 FPS (1024 SPF)
  54. Compression mode : Lossy
  55. Stream size : 2.69 MiB (5%)
  56. Title : 1-Mix Track
  57. Default : Yes
  58. Alternate group : 1
  59. Encoded date : UTC 2020-06-05 04:36:01
  60. Tagged date : UTC 2020-06-05 04:36:01
  61.  
  62. Audio #2
  63. ID : 3
  64. Format : AAC LC
  65. Format/Info : Advanced Audio Codec Low Complexity
  66. Codec ID : mp4a-40-2
  67. Duration : 1 min 10 s
  68. Bit rate mode : Constant
  69. Bit rate : 321 kb/s
  70. Channel(s) : 2 channels
  71. Channel layout : L R
  72. Sampling rate : 48.0 kHz
  73. Frame rate : 46.875 FPS (1024 SPF)
  74. Compression mode : Lossy
  75. Stream size : 2.68 MiB (5%)
  76. Title : 2-PC-Audio
  77. Default : No
  78. Alternate group : 1
  79. Encoded date : UTC 2020-06-05 04:36:01
  80. Tagged date : UTC 2020-06-05 04:36:01
  81.  
  82. Audio #3
  83. ID : 4
  84. Format : AAC LC
  85. Format/Info : Advanced Audio Codec Low Complexity
  86. Codec ID : mp4a-40-2
  87. Duration : 1 min 10 s
  88. Bit rate mode : Constant
  89. Bit rate : 265 kb/s
  90. Channel(s) : 2 channels
  91. Channel layout : L R
  92. Sampling rate : 48.0 kHz
  93. Frame rate : 46.875 FPS (1024 SPF)
  94. Compression mode : Lossy
  95. Stream size : 2.19 MiB (4%)
  96. Title : 3-Phil-Mic
  97. Default : No
  98. Alternate group : 1
  99. Encoded date : UTC 2020-06-05 04:36:01
  100. Tagged date : UTC 2020-06-05 04:36:01
  101.  
  102. Audio #4
  103. ID : 5
  104. Format : AAC LC
  105. Format/Info : Advanced Audio Codec Low Complexity
  106. Codec ID : mp4a-40-2
  107. Duration : 1 min 10 s
  108. Bit rate mode : Constant
  109. Bit rate : 2 275 b/s
  110. Channel(s) : 2 channels
  111. Channel layout : L R
  112. Sampling rate : 48.0 kHz
  113. Frame rate : 46.875 FPS (1024 SPF)
  114. Compression mode : Lossy
  115. Stream size : 19.5 KiB (0%)
  116. Title : 4-Discord-Mic
  117. Default : No
  118. Alternate group : 1
  119. Encoded date : UTC 2020-06-05 04:36:01
  120. Tagged date : UTC 2020-06-05 04:36:01
  121.  
  122.  
RAW Paste Data