daily pastebin goal
10%
SHARE
TWEET

Media Info

a guest Oct 18th, 2018 101 Never
Not a member of Pastebin yet? Sign Up, it unlocks many cool features!
  1. Format                                   : Matroska
  2. Format version                           : Version 4 / Version 2
  3. File size                                : 875 MiB
  4. Duration                                 : 1 h 53 min
  5. Overall bit rate                         : 1 075 kb/s
  6. Movie name                               : Visit: www.SSRmovies.CC
  7. Encoded date                             : UTC 2018-10-18 04:58:26
  8. Writing application                      : mkvmerge v27.0.0 ('Metropolis') 64-bit
  9. Writing library                          : libebml v1.3.6 + libmatroska v1.4.9
  10.  
  11. Video
  12. ID                                       : 1
  13. Format                                   : AVC
  14. Format/Info                              : Advanced Video Codec
  15. Format profile                           : High@L4.1
  16. Format settings                          : CABAC / 4 Ref Frames
  17. Format settings, CABAC                   : Yes
  18. Format settings, RefFrames               : 4 frames
  19. Codec ID                                 : V_MPEG4/ISO/AVC
  20. Duration                                 : 1 h 53 min
  21. Bit rate                                 : 906 kb/s
  22. Width                                    : 1 280 pixels
  23. Height                                   : 536 pixels
  24. Display aspect ratio                     : 2.40:1
  25. Frame rate mode                          : Constant
  26. Frame rate                               : 23.976 (24000/1001) FPS
  27. Original frame rate                      : 23.976 (23976/1000) FPS
  28. Color space                              : YUV
  29. Chroma subsampling                       : 4:2:0
  30. Bit depth                                : 8 bits
  31. Scan type                                : Progressive
  32. Bits/(Pixel*Frame)                       : 0.055
  33. Stream size                              : 737 MiB (84%)
  34. Title                                    : SSRmovies.CC
  35. Writing library                          : x264 core 135 r2 f0c1c53
  36. Encoding settings                        : cabac=1 / ref=4 / deblock=1:-1:-1 / analyse=0x3:0x133 / me=umh / subme=9 / psy=1 / psy_rd=1.00:0.15 / mixed_ref=1 / me_range=24 / chroma_me=1 / trellis=2 / 8x8dct=1 / cqm=0 / deadzone=21,11 / fast_pskip=0 / chroma_qp_offset=-3 / threads=18 / lookahead_threads=1 / sliced_threads=0 / nr=0 / decimate=1 / interlaced=0 / bluray_compat=0 / constrained_intra=0 / bframes=3 / b_pyramid=2 / b_adapt=2 / b_bias=0 / direct=3 / weightb=1 / open_gop=0 / weightp=2 / keyint=250 / keyint_min=23 / scenecut=40 / intra_refresh=0 / rc_lookahead=60 / rc=2pass / mbtree=1 / bitrate=906 / ratetol=1.0 / qcomp=0.60 / qpmin=0 / qpmax=69 / qpstep=4 / cplxblur=20.0 / qblur=0.5 / vbv_maxrate=31250 / vbv_bufsize=31250 / nal_hrd=none / ip_ratio=1.40 / aq=1:1.00
  37. Language                                 : English
  38. Default                                  : Yes
  39. Forced                                   : No
  40. Color range                              : Limited
  41. Color primaries                          : BT.709
  42. Matrix coefficients                      : BT.709
  43.  
  44. Audio #1
  45. ID                                       : 2
  46. Format                                   : AAC
  47. Format/Info                              : Advanced Audio Codec
  48. Format profile                           : LC
  49. Codec ID                                 : A_AAC-2
  50. Duration                                 : 1 h 53 min
  51. Bit rate                                 : 72.0 kb/s
  52. Channel(s)                               : 1 channel
  53. Channel positions                        : Front: C
  54. Sampling rate                            : 44.1 kHz
  55. Frame rate                               : 43.066 FPS (1024 SPF)
  56. Compression mode                         : Lossy
  57. Delay relative to video                  : -83 ms
  58. Stream size                              : 58.6 MiB (7%)
  59. Title                                    : SSRmovies.CC
  60. Language                                 : Hindi
  61. Default                                  : Yes
  62. Forced                                   : Yes
  63.  
  64. Audio #2
  65. ID                                       : 3
  66. Format                                   : AAC
  67. Format/Info                              : Advanced Audio Codec
  68. Format profile                           : LC
  69. Codec ID                                 : A_AAC-2
  70. Duration                                 : 1 h 53 min
  71. Bit rate                                 : 93.7 kb/s
  72. Channel(s)                               : 2 channels
  73. Channel positions                        : Front: L R
  74. Sampling rate                            : 48.0 kHz
  75. Frame rate                               : 46.875 FPS (1024 SPF)
  76. Compression mode                         : Lossy
  77. Delay relative to video                  : -83 ms
  78. Stream size                              : 76.3 MiB (9%)
  79. Title                                    : SSRmovies.CC
  80. Language                                 : English
  81. Default                                  : No
  82. Forced                                   : No
  83.  
  84. Text
  85. ID                                       : 4
  86. Format                                   : UTF-8
  87. Codec ID                                 : S_TEXT/UTF8
  88. Codec ID/Info                            : UTF-8 Plain Text
  89. Duration                                 : 1 h 45 min
  90. Bit rate                                 : 55 b/s
  91. Count of elements                        : 1460
  92. Stream size                              : 42.7 KiB (0%)
  93. Title                                    : SSRmovies.CC
  94. Language                                 : English
  95. Default                                  : Yes
  96. Forced                                   : Yes
RAW Paste Data
We use cookies for various purposes including analytics. By continuing to use Pastebin, you agree to our use of cookies as described in the Cookies Policy. OK, I Understand
 
Top