Guest User

Untitled

a guest
Jan 26th, 2020
124
Never
Not a member of Pastebin yet? Sign Up, it unlocks many cool features!
  1. General
  2. Unique ID : 298178757066984671832459997747166610059 (0xE05323C37B08CF80B7333B5FFFB8828B)
  3. Complete name : American Gangster (2007) QHD HDR.mkv
  4. Format : Matroska
  5. Format version : Version 4
  6. File size : 28.0 GiB
  7. Duration : 2 h 36 min
  8. Overall bit rate : 25.6 Mb/s
  9. Movie name : American Gangster (2007)
  10. Encoded date : UTC 2020-01-25 08:19:07
  11. Writing application : mkvmerge v42.0.0 ('Overtime') 64-bit
  12. Writing library : libebml v1.3.10 + libmatroska v1.5.2
  13. Attachments : poster.jpg
  14.  
  15. Video
  16. ID : 1
  17. Format : HEVC
  18. Format/Info : High Efficiency Video Coding
  19. Format profile : Main 10@L5@High
  20. HDR format : SMPTE ST 2094 App 4, Version 1, HDR10+ Profile B compatible
  21. Codec ID : V_MPEGH/ISO/HEVC
  22. Duration : 2 h 36 min
  23. Bit rate : 24.3 Mb/s
  24. Width : 2 560 pixels
  25. Height : 1 384 pixels
  26. Display aspect ratio : 1.85:1
  27. Frame rate mode : Constant
  28. Frame rate : 23.976 (24000/1001) FPS
  29. Color space : YUV
  30. Chroma subsampling : 4:2:0 (Type 2)
  31. Bit depth : 10 bits
  32. Bits/(Pixel*Frame) : 0.286
  33. Stream size : 26.6 GiB (95%)
  34. Writing library : x265 3.2+35-acc5d16999e2:[Windows][GCC 9.2.1][64 bit] 10bit
  35. Encoding settings : cpuid=1111039 / frame-threads=3 / numa-pools=12 / wpp / no-pmode / no-pme / no-psnr / no-ssim / log-level=2 / input-csp=1 / input-res=2560x1384 / interlace=0 / total-frames=225665 / level-idc=50 / high-tier=1 / uhd-bd=0 / ref=5 / no-allow-non-conformance / repeat-headers / annexb / aud / hrd / info / hash=0 / no-temporal-layers / no-open-gop / min-keyint=1 / keyint=240 / gop-lookahead=0 / bframes=10 / b-adapt=2 / b-pyramid / bframe-bias=0 / rc-lookahead=96 / lookahead-slices=0 / scenecut=40 / hist-scenecut=0 / radl=0 / no-splice / no-intra-refresh / ctu=64 / min-cu-size=8 / no-rect / no-amp / max-tu-size=32 / tu-inter-depth=1 / tu-intra-depth=1 / limit-tu=0 / rdoq-level=2 / dynamic-rd=0.00 / no-ssim-rd / signhide / no-tskip / nr-intra=0 / nr-inter=0 / no-constrained-intra / no-strong-intra-smoothing / max-merge=5 / limit-refs=1 / no-limit-modes / me=3 / subme=7 / merange=57 / temporal-mvp / no-frame-dup / no-hme / weightp / weightb / no-analyze-src-pics / deblock=-3:-3 / no-sao / no-sao-non-deblock / rd=4 / selective-sao=0 / no-early-skip / rskip / no-fast-intra / no-tskip-fast / no-cu-lossless / no-b-intra / no-splitrd-skip / rdpenalty=0 / psy-rd=2.50 / psy-rdoq=1.50 / no-rd-refine / no-lossless / cbqpoffs=0 / crqpoffs=0 / rc=crf / crf=20.0 / qcomp=0.65 / qpstep=4 / stats-write=0 / stats-read=0 / vbv-maxrate=100000 / vbv-bufsize=100000 / vbv-init=0.9 / crf-max=0.0 / crf-min=0.0 / ipratio=1.40 / pbratio=1.30 / aq-mode=2 / aq-strength=0.80 / no-cutree / zone-count=0 / no-strict-cbr / qg-size=16 / no-rc-grain / qpmax=69 / qpmin=0 / no-const-vbv / sar=1 / overscan=0 / videoformat=5 / range=0 / colorprim=9 / transfer=16 / colormatrix=9 / chromaloc=1 / chromaloc-top=2 / chromaloc-bottom=2 / display-window=0 / master-display=G(13250,34500)B(7500,3000)R(34000,16000)WP(15635,16450)L(10000000,50) / cll=1179,501 / min-luma=0 / max-luma=1023 / log2-max-poc-lsb=8 / vui-timing-info / vui-hrd-info / slices=1 / no-opt-qp-pps / no-opt-ref-list-length-pps / no-multi-pass-opt-rps / scenecut-bias=0.05 / hist-threshold=0.01 / no-opt-cu-delta-qp / no-aq-motion / hdr10 / hdr10-opt / dhdr10-opt / no-idr-recovery-sei / analysis-reuse-level=0 / analysis-save-reuse-level=0 / analysis-load-reuse-level=0 / scale-factor=0 / refine-intra=0 / refine-inter=0 / refine-mv=1 / refine-ctu-distortion=0 / no-limit-sao / ctu-info=0 / no-lowpass-dct / refine-analysis-type=0 / copy-pic=1 / max-ausize-factor=1.0 / no-dynamic-refine / no-single-sei / no-hevc-aq / no-svt / no-field / qp-adaptation-range=1.00 / no-scenecut-aware-qpconformance-window-offsets / right=0 / bottom=0
  36. Language : English
  37. Default : Yes
  38. Forced : No
  39. Color range : Limited
  40. Color primaries : BT.2020
  41. Transfer characteristics : PQ
  42. Matrix coefficients : BT.2020 non-constant
  43. Mastering display color pri : Display P3
  44. Mastering display luminance : min: 0.0050 cd/m2, max: 1000 cd/m2
  45. Maximum Content Light Level : 1179 cd/m2
  46. Maximum Frame-Average Light : 501 cd/m2
  47.  
  48. Audio #1
  49. ID : 2
  50. Format : AC-3
  51. Format/Info : Audio Coding 3
  52. Commercial name : Dolby Digital
  53. Codec ID : A_AC3
  54. Duration : 2 h 36 min
  55. Bit rate mode : Constant
  56. Bit rate : 640 kb/s
  57. Channel(s) : 6 channels
  58. Channel layout : L R C LFE Ls Rs
  59. Sampling rate : 48.0 kHz
  60. Frame rate : 31.250 FPS (1536 SPF)
  61. Compression mode : Lossy
  62. Stream size : 718 MiB (3%)
  63. Title : Dub
  64. Language : Russian
  65. Service kind : Complete Main
  66. Default : Yes
  67. Forced : No
  68.  
  69. Audio #2
  70. ID : 3
  71. Format : AC-3
  72. Format/Info : Audio Coding 3
  73. Commercial name : Dolby Digital
  74. Codec ID : A_AC3
  75. Duration : 2 h 36 min
  76. Bit rate mode : Constant
  77. Bit rate : 640 kb/s
  78. Channel(s) : 6 channels
  79. Channel layout : L R C LFE Ls Rs
  80. Sampling rate : 48.0 kHz
  81. Frame rate : 31.250 FPS (1536 SPF)
  82. Compression mode : Lossy
  83. Stream size : 718 MiB (3%)
  84. Title : Original
  85. Language : English
  86. Service kind : Complete Main
  87. Default : No
  88. Forced : No
  89.  
  90. Text #1
  91. ID : 4
  92. Format : UTF-8
  93. Codec ID : S_TEXT/UTF8
  94. Codec ID/Info : UTF-8 Plain Text
  95. Duration : 2 h 35 min
  96. Bit rate : 0 b/s
  97. Count of elements : 12
  98. Stream size : 319 Bytes (0%)
  99. Title : Forced
  100. Language : Russian
  101. Default : Yes
  102. Forced : Yes
  103.  
  104. Text #2
  105. ID : 5
  106. Format : UTF-8
  107. Codec ID : S_TEXT/UTF8
  108. Codec ID/Info : UTF-8 Plain Text
  109. Duration : 2 h 27 min
  110. Bit rate : 75 b/s
  111. Count of elements : 2212
  112. Stream size : 81.2 KiB (0%)
  113. Title : SDH
  114. Language : English
  115. Default : No
  116. Forced : No
  117.  
  118. Menu
  119. 00:00:00.000 : en:Chapter 1
  120. 00:06:48.616 : en:Chapter 2
  121. 00:14:07.263 : en:Chapter 3
  122. 00:24:15.662 : en:Chapter 4
  123. 00:30:52.767 : en:Chapter 5
  124. 00:36:06.414 : en:Chapter 6
  125. 00:42:21.705 : en:Chapter 7
  126. 00:48:29.531 : en:Chapter 8
  127. 00:54:06.993 : en:Chapter 9
  128. 01:04:50.261 : en:Chapter 10
  129. 01:09:29.456 : en:Chapter 11
  130. 01:17:37.319 : en:Chapter 12
  131. 01:25:58.236 : en:Chapter 13
  132. 01:32:02.808 : en:Chapter 14
  133. 01:40:46.582 : en:Chapter 15
  134. 01:48:52.692 : en:Chapter 16
  135. 01:56:54.215 : en:Chapter 17
  136. 02:04:02.101 : en:Chapter 18
  137. 02:15:46.179 : en:Chapter 19
  138. 02:29:05.978 : en:Chapter 20
  139.  
  140.  
  141. x265 [info]: frame I: 1706, Avg QP:20.14 kb/s: 38895.08
  142. x265 [info]: frame P: 32935, Avg QP:21.04 kb/s: 33517.51
  143. x265 [info]: frame B: 191024, Avg QP:23.35 kb/s: 22561.86
  144. x265 [info]: Weighted P-Frames: Y:4.5% UV:3.5%
  145. x265 [info]: Weighted B-Frames: Y:3.5% UV:2.4%
  146. x265 [info]: consecutive B-frames: 8.8% 1.9% 4.5% 11.8% 10.0% 15.4% 8.8% 8.6% 7.2% 13.9% 9.3%
  147.  
  148. Avg QP:22.98
RAW Paste Data