Guest User

Untitled

a guest
Sep 2nd, 2013
185
Never
Not a member of Pastebin yet? Sign Up, it unlocks many cool features!
  1. ffmpeg -i http://brightcove03-f.akamaihd.net/valgbodmandag1378107345_1_300k@80362 -vframes 1 -y frame.jpg
  2.  
  3. ffmpeg version N-54643-g15cee5e Copyright (c) 2000-2013 the FFmpeg developers
  4. built on Jul 11 2013 03:35:11 with gcc 4.7.3 (GCC)
  5. configuration: --enable-gpl --enable-version3 --disable-w32threads --enable-avisynth --enable-bzlib --enable-fontconfig --enable-frei0r --enable-g
  6. tls --enable-iconv --enable-libass --enable-libbluray --enable-libcaca --enable-libfreetype --enable-libgsm --enable-libilbc --enable-libmodplug --e
  7. ble-libmp3lame --enable-libopencore-amrnb --enable-libopencore-amrwb --enable-libopenjpeg --enable-libopus --enable-librtmp --enable-libschroedinger
  8. -enable-libsoxr --enable-libspeex --enable-libtheora --enable-libtwolame --enable-libvo-aacenc --enable-libvo-amrwbenc --enable-libvorbis --enable-l
  9. vpx --enable-libx264 --enable-libxavs --enable-libxvid --enable-zlib
  10. libavutil 52. 39.100 / 52. 39.100
  11. libavcodec 55. 18.102 / 55. 18.102
  12. libavformat 55. 12.101 / 55. 12.101
  13. libavdevice 55. 3.100 / 55. 3.100
  14. libavfilter 3. 80.100 / 3. 80.100
  15. libswscale 2. 3.100 / 2. 3.100
  16. libswresample 0. 17.102 / 0. 17.102
  17. libpostproc 52. 3.100 / 52. 3.100
  18. [flv @ 00000000027da340] Stream discovered after head already parsed
  19. Input #0, flv, from 'http://brightcove03-f.akamaihd.net/valgbodmandag1378107345_1_300k@80362':
  20. Metadata:
  21. encoder : Lavf54.6.100
  22. Duration: 00:00:00.00, start: 0.000000, bitrate: N/A
  23. Stream #0:0: Video: h264 (Constrained Baseline), yuv420p, 480x270 [SAR 1:1 DAR 16:9], 25 tbr, 1k tbn, 50 tbc
  24. Stream #0:1: Audio: aac, 44100 Hz, stereo, fltp, 128 kb/s
  25. Stream #0:2: Data: none
  26. Output #0, image2, to 'frame.jpg':
  27. Metadata:
  28. encoder : Lavf55.12.101
  29. Stream #0:0: Video: mjpeg, yuvj420p, 480x270 [SAR 1:1 DAR 16:9], q=2-31, 200 kb/s, 90k tbn, 25 tbc
  30. Stream mapping:
  31. Stream #0:0 -> #0:0 (h264 -> mjpeg)
  32. Press [q] to stop, [?] for help
  33. frame= 1 fps=0.0 q=0.0 Lsize=N/A time=00:00:00.04 bitrate=N/A
  34. video:21kB audio:0kB subtitle:0 global headers:0kB muxing overhead -100.103238%
RAW Paste Data