Secasa

Untitled

May 1st, 2015
7
Never
Not a member of Pastebin yet? Sign Up, it unlocks many cool features!
  1. Format : Matroska
  2. Format version : Version 4 / Version 2
  3. File size : 5.08 GiB
  4. Duration : 2h 6mn
  5. Overall bit rate : 5 745 Kbps
  6. Encoded date : UTC 2015-03-27 12:45:18
  7. Writing application : mkvmerge v6.8.0 ('Theme for Great Cities') 32bit built on Mar 2 2014 21:27:07
  8. Writing library : libebml v1.3.0 + libmatroska v1.4.1
  9.  
  10. Video
  11. ID : 1
  12. Format : AVC
  13. Format/Info : Advanced Video Codec
  14. Format profile : High@L4.0
  15. Format settings, CABAC : Yes
  16. Format settings, ReFrames : 3 frames
  17. Codec ID : V_MPEG4/ISO/AVC
  18. Duration : 2h 6mn
  19. Bit rate : 5 247 Kbps
  20. Width : 1 920 pixels
  21. Height : 800 pixels
  22. Display aspect ratio : 2.40:1
  23. Frame rate mode : Constant
  24. Frame rate : 23.976 fps
  25. Color space : YUV
  26. Chroma subsampling : 4:2:0
  27. Bit depth : 8 bits
  28. Scan type : Progressive
  29. Bits/(Pixel*Frame) : 0.142
  30. Stream size : 4.64 GiB (91%)
  31. Writing library : x264 core 130 r2273 b3065e6
  32. Encoding settings : cabac=1 / ref=4 / deblock=1:-2:-2 / analyse=0x3:0x113 / me=hex / subme=9 / psy=1 / psy_rd=1.00:0.15 / mixed_ref=1 / me_range=16 / chroma_me=1 / trellis=2 / 8x8dct=1 / cqm=0 / deadzone=21,11 / fast_pskip=1 / chroma_qp_offset=-3 / threads=6 / lookahead_threads=1 / sliced_threads=0 / nr=0 / decimate=1 / interlaced=0 / bluray_compat=0 / constrained_intra=0 / bframes=4 / b_pyramid=1 / b_adapt=2 / b_bias=0 / direct=1 / weightb=1 / open_gop=0 / weightp=2 / keyint=240 / keyint_min=24 / scenecut=40 / intra_refresh=0 / rc_lookahead=50 / rc=crf / mbtree=1 / crf=21.0 / qcomp=0.60 / qpmin=0 / qpmax=69 / qpstep=4 / ip_ratio=1.40 / aq=1:1.00
  33. Language : English
  34. Default : Yes
  35. Forced : No
  36. Color primaries : BT.709
  37. Transfer characteristics : BT.709
  38. Matrix coefficients : BT.709
  39.  
  40. Audio #1
  41. ID : 2
  42. Format : AC-3
  43. Format/Info : Audio Coding 3
  44. Mode extension : CM (complete main)
  45. Format settings, Endianness : Big
  46. Codec ID : A_AC3
  47. Duration : 2h 6mn
  48. Bit rate mode : Constant
  49. Bit rate : 192 Kbps
  50. Channel(s) : 1 channel
  51. Channel positions : Front: C
  52. Sampling rate : 48.0 KHz
  53. Bit depth : 16 bits
  54. Compression mode : Lossy
  55. Delay relative to video : 42ms
  56. Stream size : 174 MiB (3%)
  57. Language : Spanish
  58. Default : Yes
  59. Forced : No
  60.  
  61. Audio #2
  62. ID : 3
  63. Format : AC-3
  64. Format/Info : Audio Coding 3
  65. Mode extension : CM (complete main)
  66. Format settings, Endianness : Big
  67. Codec ID : A_AC3
  68. Duration : 2h 6mn
  69. Bit rate mode : Constant
  70. Bit rate : 192 Kbps
  71. Channel(s) : 1 channel
  72. Channel positions : Front: C
  73. Sampling rate : 48.0 KHz
  74. Bit depth : 16 bits
  75. Compression mode : Lossy
  76. Delay relative to video : 42ms
  77. Stream size : 174 MiB (3%)
  78. Language : English
  79. Default : No
  80. Forced : No
  81.  
  82. Text #1
  83. ID : 4
  84. Format : PGS
  85. Muxing mode : zlib
  86. Codec ID : S_HDMV/PGS
  87. Codec ID/Info : The same subtitle format used on BDs/HD-DVDs
  88. Title : Español bluray PGS
  89. Language : Spanish
  90. Default : No
  91. Forced : No
  92.  
  93. Text #2
  94. ID : 5
  95. Format : UTF-8
  96. Codec ID : S_TEXT/UTF8
  97. Codec ID/Info : UTF-8 Plain Text
  98. Title : Español planos SRT
  99. Language : Spanish
  100. Default : No
  101. Forced : No
  102.  
  103. Text #3
  104. ID : 6
  105. Format : PGS
  106. Muxing mode : zlib
  107. Codec ID : S_HDMV/PGS
  108. Codec ID/Info : The same subtitle format used on BDs/HD-DVDs
  109. Title : English bluray PGS
  110. Language : English
  111. Default : No
  112. Forced : No
  113.  
  114. Text #4
  115. ID : 7
  116. Format : UTF-8
  117. Codec ID : S_TEXT/UTF8
  118. Codec ID/Info : UTF-8 Plain Text
  119. Title : English planos SRT
  120. Language : English
  121. Default : No
  122. Forced : No
RAW Paste Data