SHARE
TWEET

[FFF] Magic Kaito 1412 - 02 [EDF0B2F8]

a guest Apr 22nd, 2017 6 Never
Not a member of Pastebin yet? Sign Up, it unlocks many cool features!
  1. General
  2. Unique ID                                : 194315962558200227890935425704334958122 (0x922FE4A1F5FB414D88B2C7DB262F9E2A)
  3. Complete name                            : [FFF] Magic Kaito 1412 - 02 [EDF0B2F8]_Attachments\[FFF] Magic Kaito 1412 - 02 [EDF0B2F8].mkv
  4. Format                                   : Matroska
  5. Format version                           : Version 4 / Version 2
  6. File size                                : 292 MiB
  7. Duration                                 : 23 min 49 s
  8. Overall bit rate                         : 1 712 kb/s
  9. Encoded date                             : UTC 2014-10-14 00:19:25
  10. Writing application                      : mkvmerge v7.2.0 ('On Every Street') 64bit built on Sep 13 2014 15:52:10
  11. Writing library                          : libebml v1.3.0 + libmatroska v1.4.1
  12. Attachments                              : ITC Avant Garde Gothic LT Condensed Medium.ttf / Marker_SD_Regular.ttf / Montara-Gothic.otf / Montara-Italic.TTF / belligerent.ttf / Calligrapher Regular.ttf / D3Streetism.TTF / DFGothicU-W5.ttf
  13.  
  14. Video
  15. ID                                       : 1
  16. Format                                   : AVC
  17. Format/Info                              : Advanced Video Codec
  18. Format profile                           : High 10@L4
  19. Format settings, CABAC                   : Yes
  20. Format settings, ReFrames                : 9 frames
  21. Codec ID                                 : V_MPEG4/ISO/AVC
  22. Duration                                 : 23 min 49 s
  23. Bit rate                                 : 1 517 kb/s
  24. Width                                    : 1 280 pixels
  25. Height                                   : 720 pixels
  26. Display aspect ratio                     : 16:9
  27. Frame rate mode                          : Constant
  28. Frame rate                               : 23.976 (24000/1001) FPS
  29. Color space                              : YUV
  30. Chroma subsampling                       : 4:2:0
  31. Bit depth                                : 10 bits
  32. Scan type                                : Progressive
  33. Bits/(Pixel*Frame)                       : 0.069
  34. Stream size                              : 259 MiB (89%)
  35. Title                                    : 10bit H.264 - 720p
  36. Writing library                          : x264 core 125 r2200+677M 3a754e7
  37. Encoding settings                        : cabac=1 / ref=9 / deblock=1:0:0 / analyse=0x3:0x133 / me=umh / subme=10 / psy=1 / fade_compensate=0.50 / psy_rd=0.80:0.10 / mixed_ref=1 / me_range=24 / chroma_me=1 / trellis=2 / 8x8dct=1 / cqm=0 / deadzone=21,11 / fast_pskip=1 / chroma_qp_offset=-3 / threads=16 / lookahead_threads=2 / sliced_threads=0 / nr=0 / decimate=1 / interlaced=0 / bluray_compat=0 / constrained_intra=0 / fgo=0 / bframes=12 / b_pyramid=2 / b_adapt=2 / b_bias=0 / direct=3 / weightb=1 / open_gop=0 / weightp=2 / keyint=250 / keyint_min=23 / scenecut=40 / intra_refresh=0 / rc_lookahead=60 / rc=crf / mbtree=1 / crf=17.0000 / qcomp=0.60 / qpmin=0 / qpmax=81 / qpstep=4 / ip_ratio=1.40 / aq=3:0.80
  38. Language                                 : Japanese
  39. Default                                  : Yes
  40. Forced                                   : No
  41. Color range                              : Limited
  42. Matrix coefficients                      : BT.709
  43.  
  44. Audio
  45. ID                                       : 2
  46. Format                                   : AAC
  47. Format/Info                              : Advanced Audio Codec
  48. Format profile                           : LC
  49. Codec ID                                 : A_AAC
  50. Duration                                 : 23 min 49 s
  51. Bit rate                                 : 192 kb/s
  52. Channel(s)                               : 2 channels
  53. Channel positions                        : Front: L R
  54. Sampling rate                            : 48.0 kHz
  55. Frame rate                               : 46.875 FPS (1024 spf)
  56. Compression mode                         : Lossy
  57. Stream size                              : 32.2 MiB (11%)
  58. Title                                    : 2.0 AAC
  59. Language                                 : Japanese
  60. Default                                  : Yes
  61. Forced                                   : No
  62.  
  63. Text
  64. ID                                       : 3
  65. Format                                   : ASS
  66. Codec ID                                 : S_TEXT/ASS
  67. Codec ID/Info                            : Advanced Sub Station Alpha
  68. Duration                                 : 23 min 49 s
  69. Bit rate                                 : 1 529 b/s
  70. Count of elements                        : 2060
  71. Compression mode                         : Lossless
  72. Stream size                              : 267 KiB (0%)
  73. Title                                    : FFF
  74. Language                                 : English
  75. Default                                  : Yes
  76. Forced                                   : No
  77.  
  78. Menu
  79. 00:00:00.033                             : en:Intro
  80. 00:01:35.995                             : en:OP
  81. 00:03:05.919                             : en:Part A
  82. 00:11:58.951                             : en:Part B
  83. 00:21:49.908                             : en:ED
  84. 00:23:19.869                             : en:Preview
RAW Paste Data
We use cookies for various purposes including analytics. By continuing to use Pastebin, you agree to our use of cookies as described in the Cookies Policy. OK, I Understand
Top