Guest User

Untitled

a guest
Feb 27th, 2021
31
Never
Not a member of Pastebin yet? Sign Up, it unlocks many cool features!
  1. General
  2. Unique ID : 119923462172713584219455762800680360776 (0x5A386B2ED43110D48D025DED14EFDB48)
  3. Complete name : F:\Video\Just.a.Gigolo.2019.BDREMUX.1080p.seleZen.mkv
  4. Format : Matroska
  5. Format version : Version 4
  6. File size : 20.5 GiB
  7. Duration : 1 h 33 min
  8. Overall bit rate mode : Variable
  9. Overall bit rate : 31.3 Mb/s
  10. Movie name : Just a Gigolo 2019 from seleZen
  11. Encoded date : UTC 2021-02-27 13:52:34
  12. Writing application : mkvmerge v54.0.0 ('F Maj Pixie') 64-bit
  13. Writing library : libebml v1.4.2 + libmatroska v1.6.3
  14.  
  15. Video
  16. ID : 1
  17. Format : AVC
  18. Format/Info : Advanced Video Codec
  19. Format profile : High@L4.1
  20. Format settings : CABAC / 4 Ref Frames
  21. Format settings, CABAC : Yes
  22. Format settings, Reference : 4 frames
  23. Format settings, GOP : M=3, N=24
  24. Codec ID : V_MPEG4/ISO/AVC
  25. Duration : 1 h 33 min
  26. Bit rate mode : Variable
  27. Bit rate : 29.0 Mb/s
  28. Maximum bit rate : 34.0 Mb/s
  29. Width : 1 920 pixels
  30. Height : 1 080 pixels
  31. Display aspect ratio : 16:9
  32. Frame rate mode : Constant
  33. Frame rate : 24.000 FPS
  34. Standard : NTSC
  35. Color space : YUV
  36. Chroma subsampling : 4:2:0
  37. Bit depth : 8 bits
  38. Scan type : Progressive
  39. Bits/(Pixel*Frame) : 0.583
  40. Stream size : 19.0 GiB (93%)
  41. Language : French
  42. Default : Yes
  43. Forced : No
  44. Color range : Limited
  45. Color primaries : BT.709
  46. Transfer characteristics : BT.709
  47. Matrix coefficients : BT.709
  48.  
  49. Audio #1
  50. ID : 2
  51. Format : AC-3
  52. Format/Info : Audio Coding 3
  53. Commercial name : Dolby Digital
  54. Codec ID : A_AC3
  55. Duration : 1 h 33 min
  56. Bit rate mode : Constant
  57. Bit rate : 384 kb/s
  58. Channel(s) : 6 channels
  59. Channel layout : L R C LFE Ls Rs
  60. Sampling rate : 48.0 kHz
  61. Frame rate : 31.250 FPS (1536 SPF)
  62. Compression mode : Lossy
  63. Stream size : 258 MiB (1%)
  64. Title : iTunes
  65. Language : Russian
  66. Service kind : Complete Main
  67. Default : Yes
  68. Forced : Yes
  69.  
  70. Audio #2
  71. ID : 3
  72. Format : DTS XLL
  73. Format/Info : Digital Theater Systems
  74. Commercial name : DTS-HD Master Audio
  75. Codec ID : A_DTS
  76. Duration : 1 h 33 min
  77. Bit rate mode : Variable
  78. Bit rate : 1 929 kb/s
  79. Channel(s) : 6 channels
  80. Channel layout : C L R Ls Rs LFE
  81. Sampling rate : 48.0 kHz
  82. Frame rate : 93.750 FPS (512 SPF)
  83. Bit depth : 16 bits
  84. Compression mode : Lossless
  85. Stream size : 1.27 GiB (6%)
  86. Title : Original
  87. Language : French
  88. Default : No
  89. Forced : No
  90.  
  91. Text #1
  92. ID : 4
  93. Format : UTF-8
  94. Codec ID : S_TEXT/UTF8
  95. Codec ID/Info : UTF-8 Plain Text
  96. Duration : 1 min 34 s
  97. Bit rate : 57 b/s
  98. Count of elements : 16
  99. Stream size : 681 Bytes (0%)
  100. Title : Forced
  101. Language : Russian
  102. Default : Yes
  103. Forced : Yes
  104.  
  105. Text #2
  106. ID : 5
  107. Format : UTF-8
  108. Codec ID : S_TEXT/UTF8
  109. Codec ID/Info : UTF-8 Plain Text
  110. Duration : 1 h 27 min
  111. Bit rate : 107 b/s
  112. Count of elements : 1394
  113. Stream size : 68.6 KiB (0%)
  114. Title : Full
  115. Language : Russian
  116. Default : No
  117. Forced : No
  118.  
  119. Menu
  120. 00:00:00.000 : en:Глава 01
  121. 00:13:20.458 : en:Глава 02
  122. 00:22:09.708 : en:Глава 03
  123. 00:33:35.167 : en:Глава 04
  124. 00:46:18.958 : en:Глава 05
  125. 00:58:40.375 : en:Глава 06
  126. 01:09:41.167 : en:Глава 07
  127. 01:20:57.417 : en:Глава 08
  128. 01:29:27.167 : en:Глава 09
  129.  
  130.  
RAW Paste Data