Advertisement
Guest User

Untitled

a guest
May 16th, 2011
2,505
Never
Not a member of Pastebin yet? Sign Up, it unlocks many cool features!
  1. General
  2. Complete name : D:\drop\My Dropbox\Public\Suzumiya_Haruhi_no_Yuuutsu_-_C4_-_Special_Ending_-__Hitsuji__e569a2b7_ with_fixed_frame_rate_reporting.mkv
  3. Format : Matroska
  4. File size : 30.7 MiB
  5. Duration : 1mn 11s
  6. Overall bit rate : 3 578 Kbps
  7. Movie name : The Melancholy of Haruhi Suzumiya: Special Ending
  8. Encoded date : UTC 2011-05-17 03:23:22
  9. Writing application : mkvmerge v4.7.0 ('Just Like You Imagined') built on Apr 21 2011 01:13:14
  10. Writing library : libebml v1.2.0 + libmatroska v1.1.0
  11. Cover : Yes / Yes
  12.  
  13. Video
  14. ID : 1
  15. Format : AVC
  16. Format/Info : Advanced Video Codec
  17. Format profile : High@L5.1
  18. Format settings, CABAC : Yes
  19. Format settings, ReFrames : 11 frames
  20. Muxing mode : Container profile=Unknown@5.1
  21. Codec ID : V_MPEG4/ISO/AVC
  22. Duration : 1mn 11s
  23. Bit rate : 3 400 Kbps
  24. Width : 704 pixels
  25. Height : 480 pixels
  26. Display aspect ratio : 16:9
  27. Original display aspect ratio : 3:2
  28. Frame rate : 29.970 fps
  29. Standard : NTSC
  30. Color space : YUV
  31. Chroma subsampling : 4:2:0
  32. Bit depth : 8 bits
  33. Scan type : Progressive
  34. Bits/(Pixel*Frame) : 0.336
  35. Stream size : 28.7 MiB (94%)
  36. Title : The Melancholy of Haruhi Suzumiya: Special Ending
  37. Writing library : x264 core 54 svn-614M
  38. Encoding settings : cabac=1 / ref=8 / deblock=1:0:0 / analyse=0x3:0x133 / me=esa / subme=7 / brdo=1 / mixed_ref=1 / me_range=24 / chroma_me=1 / trellis=2 / 8x8dct=1 / cqm=0 / deadzone=21,11 / chroma_qp_offset=0 / threads=1 / nr=0 / decimate=1 / mbaff=0 / bframes=3 / b_pyramid=1 / b_adapt=1 / b_bias=0 / direct=1 / wpredb=1 / bime=1 / keyint=250 / keyint_min=25 / scenecut=40 / rc=2pass / bitrate=3400 / ratetol=1.0 / rceq='blurCplx^(1-qComp)' / qcomp=0.60 / qpmin=10 / qpmax=51 / qpstep=4 / cplxblur=20.0 / qblur=0.5 / ip_ratio=1.40 / pb_ratio=1.30 / aq=1:1.0:15.0
  39. Language : Japanese
  40.  
  41. Audio
  42. ID : 2
  43. Format : Vorbis
  44. Format settings, Floor : 1
  45. Codec ID : A_VORBIS
  46. Duration : 1mn 11s
  47. Bit rate mode : Constant
  48. Bit rate : 160 Kbps
  49. Channel(s) : 2 channels
  50. Sampling rate : 48.0 KHz
  51. Stream size : 1.37 MiB (4%)
  52. Title : 2ch Vorbis
  53. Writing library : aoTuV Beta 4 (UTC 2005-06-17)
  54. Language : Japanese
  55.  
  56. Text #1
  57. ID : 3
  58. Format : ASS
  59. Codec ID : S_TEXT/ASS
  60. Codec ID/Info : Advanced Sub Station Alpha
  61. Title : Styled ASS
  62.  
  63. Text #2
  64. ID : 4
  65. Format : ASS
  66. Codec ID : S_TEXT/ASS
  67. Codec ID/Info : Advanced Sub Station Alpha
  68. Title : Styled ASS (Simple)
  69.  
  70. Text #3
  71. ID : 5
  72. Format : UTF-8
  73. Codec ID : S_TEXT/UTF8
  74. Codec ID/Info : UTF-8 Plain Text
  75. Title : Plain SRT
Advertisement
RAW Paste Data Copied
Advertisement