Guest User

Untitled

a guest
Jan 13th, 2020
74
Never
Not a member of Pastebin yet? Sign Up, it unlocks many cool features!
  1. General
  2. Уникальный идентификатор : 212065491010255109882464024818463239353 (0x9F8A53F3459567CDB4A44A7AD71F6CB9)
  3. Полное имя : D:\ФИЛЬМЫ\White.Tiger.1996.1080p.AMZN.WEB-DL.3xRus.Eng.Avanpost12-BLUEBIRD.mkv
  4. Формат : Matroska
  5. Версия формата : Version 2
  6. Размер файла : 6.94 GiB
  7. Продолжительность : 1 h 33 min
  8. Общий поток : 10.6 Mb/s
  9. Название фильма : White Tiger (1996)
  10. Дата кодирования : UTC 2020-01-12 20:10:19
  11. Программа кодирования : mkvmerge v7.8.0 ('River Man') 32bit built on Apr 3 2015 12:11:22
  12. Библиотека кодирования : libebml v1.3.1 + libmatroska v1.4.2
  13.  
  14. Video
  15. Идентификатор : 1
  16. Формат : AVC
  17. Формат/Информация : Advanced Video Codec
  18. Профиль формата : High@L4
  19. Настройки формата : CABAC / 4 Ref Frames
  20. Параметр CABAC формата : Yes
  21. Параметр RefFrames формата : 4 frames
  22. Идентификатор кодека : V_MPEG4/ISO/AVC
  23. Продолжительность : 1 h 33 min
  24. Вид битрейта : Constant
  25. Битрейт : 9 190 kb/s
  26. Номинальный битрейт : 10 000 kb/s
  27. Ширина : 1 920 pixels
  28. Высота : 1 080 pixels
  29. Соотношение сторон : 16:9
  30. Режим частоты кадров : Constant
  31. Частота кадров : 23.976 (24000/1001) FPS
  32. Цветовое пространство : YUV
  33. Субдискретизация насыщенности : 4:2:0
  34. Битовая глубина : 8 bits
  35. Тип развёртки : Progressive
  36. Бит/(Пиксели*Кадры) : 0.185
  37. Размер потока : 6.01 GiB (87%)
  38. Заголовок : Release for BLUEBIRD by Avanpost12
  39. Язык : English
  40. Default : Yes
  41. Forced : No
  42. Цветовой диапазон : Limited
  43. Основные цвета : BT.709
  44. Характеристики трансфера : BT.709
  45. Коэффициенты матрицы : BT.709
  46.  
  47. Audio #1
  48. Идентификатор : 2
  49. Формат : AC-3
  50. Формат/Информация : Audio Coding 3
  51. Идентификатор кодека : A_AC3
  52. Продолжительность : 1 h 33 min
  53. Вид битрейта : Constant
  54. Битрейт : 192 kb/s
  55. Каналы : 2 channels
  56. Расположение каналов : Front: L R
  57. Частота : 48.0 kHz
  58. Частота кадров : 31.250 FPS (1536 SPF)
  59. Битовая глубина : 16 bits
  60. Метод сжатия : Lossy
  61. Размер потока : 129 MiB (2%)
  62. Заголовок : AVO (Андрей Дольский)
  63. Язык : Russian
  64. ServiceKind/String : Complete Main
  65. Default : Yes
  66. Forced : No
  67.  
  68. Audio #2
  69. Идентификатор : 3
  70. Формат : AC-3
  71. Формат/Информация : Audio Coding 3
  72. Идентификатор кодека : A_AC3
  73. Продолжительность : 1 h 33 min
  74. Вид битрейта : Constant
  75. Битрейт : 192 kb/s
  76. Каналы : 2 channels
  77. Расположение каналов : Front: L R
  78. Частота : 48.0 kHz
  79. Частота кадров : 31.250 FPS (1536 SPF)
  80. Битовая глубина : 16 bits
  81. Метод сжатия : Lossy
  82. Размер потока : 129 MiB (2%)
  83. Заголовок : AVO (Павел Санаев)
  84. Язык : Russian
  85. ServiceKind/String : Complete Main
  86. Default : No
  87. Forced : No
  88.  
  89. Audio #3
  90. Идентификатор : 4
  91. Формат : AC-3
  92. Формат/Информация : Audio Coding 3
  93. Идентификатор кодека : A_AC3
  94. Продолжительность : 1 h 33 min
  95. Вид битрейта : Constant
  96. Битрейт : 192 kb/s
  97. Каналы : 2 channels
  98. Расположение каналов : Front: L R
  99. Частота : 48.0 kHz
  100. Частота кадров : 31.250 FPS (1536 SPF)
  101. Битовая глубина : 16 bits
  102. Метод сжатия : Lossy
  103. Размер потока : 129 MiB (2%)
  104. Заголовок : AVO (Андрей Гаврилов)
  105. Язык : Russian
  106. ServiceKind/String : Complete Main
  107. Default : No
  108. Forced : No
  109.  
  110. Audio #4
  111. Идентификатор : 5
  112. Формат : E-AC-3
  113. Формат/Информация : Enhanced Audio Coding 3
  114. Идентификатор кодека : A_EAC3
  115. Продолжительность : 1 h 33 min
  116. Вид битрейта : Constant
  117. Битрейт : 640 kb/s
  118. Каналы : 6 channels
  119. Расположение каналов : Front: L C R, Side: L R, LFE
  120. Частота : 48.0 kHz
  121. Частота кадров : 187.500 FPS (256 SPF)
  122. Метод сжатия : Lossy
  123. Размер потока : 428 MiB (6%)
  124. Заголовок : Original
  125. Язык : English
  126. ServiceKind/String : Complete Main
  127. Default : No
  128. Forced : No
  129.  
  130. Text #1
  131. Идентификатор : 6
  132. Формат : UTF-8
  133. Идентификатор кодека : S_TEXT/UTF8
  134. Идентификатор кодека/Информация : UTF-8 Plain Text
  135. Заголовок : full
  136. Язык : English
  137. Default : No
  138. Forced : No
  139.  
  140. Text #2
  141. Идентификатор : 7
  142. Формат : UTF-8
  143. Идентификатор кодека : S_TEXT/UTF8
  144. Идентификатор кодека/Информация : UTF-8 Plain Text
  145. Заголовок : SDH
  146. Язык : English
  147. Default : No
  148. Forced : No
  149.  
  150. Menu
  151. 00:00:00.000 : en:Chapter 1
  152. 00:09:38.578 : en:Chapter 2
  153. 00:18:35.114 : en:Chapter 3
  154. 00:29:50.789 : en:Chapter 4
  155. 00:40:46.444 : en:Chapter 5
  156. 00:51:16.073 : en:Chapter 6
  157. 01:01:13.670 : en:Chapter 7
  158. 01:10:32.228 : en:Chapter 8
  159. 01:19:57.793 : en:Chapter 9
  160. 01:26:17.172 : en:Chapter 10
RAW Paste Data