Guest User

Food Wars! S03E01

a guest
Jan 9th, 2018
227
Never
Not a member of Pastebin yet? Sign Up, it unlocks many cool features!
  1. General
  2. Unique ID : 217004072932654847500329191830744990170 (0xA34176D690975455A220DE30473401DA)
  3. Complete name : [AnimeRG] Food Wars - The Third Plate - 01 [1080p] [Multi-Sub] [x265] [pseudo].mkv
  4. Format : Matroska
  5. Format version : Version 4 / Version 2
  6. File size : 283 MiB
  7. Duration : 24 min 12 s
  8. Overall bit rate : 1 633 kb/s
  9. Encoded date : UTC 2017-12-30 22:32:16
  10. Writing application : mkvmerge v9.2.0 ('Photograph') 64bit
  11. Writing library : libebml v1.3.3 + libmatroska v1.4.4
  12.  
  13. Video
  14. ID : 1
  15. Format : HEVC
  16. Format/Info : High Efficiency Video Coding
  17. Format profile : Main@L5@Main
  18. Codec ID : V_MPEGH/ISO/HEVC
  19. Duration : 24 min 12 s
  20. Bit rate : 1 535 kb/s
  21. Width : 1 920 pixels
  22. Height : 1 080 pixels
  23. Display aspect ratio : 16:9
  24. Frame rate mode : Constant
  25. Frame rate : 23.976 (24000/1001) FPS
  26. Color space : YUV
  27. Chroma subsampling : 4:2:0
  28. Bit depth : 8 bits
  29. Bits/(Pixel*Frame) : 0.031
  30. Stream size : 266 MiB (94%)
  31. Default : Yes
  32. Forced : No
  33.  
  34. Audio
  35. ID : 2
  36. Format : AAC
  37. Format/Info : Advanced Audio Codec
  38. Format profile : LC
  39. Codec ID : A_AAC-2
  40. Duration : 24 min 12 s
  41. Bit rate : 93.9 kb/s
  42. Channel(s) : 2 channels
  43. Channel positions : Front: L R
  44. Sampling rate : 44.1 kHz
  45. Frame rate : 43.066 FPS (1024 SPF)
  46. Compression mode : Lossy
  47. Delay relative to video : 22 ms
  48. Stream size : 16.3 MiB (6%)
  49. Title : Japanese Stereo
  50. Language : Japanese
  51. Default : Yes
  52. Forced : No
  53.  
  54. Text #1
  55. ID : 3
  56. Format : UTF-8
  57. Codec ID : S_TEXT/UTF8
  58. Codec ID/Info : UTF-8 Plain Text
  59. Duration : 24 min 9 s
  60. Bit rate : 94 b/s
  61. Count of elements : 502
  62. Stream size : 16.7 KiB (0%)
  63. Language : English
  64. Default : Yes
  65. Forced : No
  66.  
  67. Text #2
  68. ID : 4
  69. Format : UTF-8
  70. Codec ID : S_TEXT/UTF8
  71. Codec ID/Info : UTF-8 Plain Text
  72. Duration : 24 min 9 s
  73. Bit rate : 143 b/s
  74. Count of elements : 462
  75. Stream size : 25.3 KiB (0%)
  76. Language : Arabic
  77. Default : No
  78. Forced : No
  79.  
  80. Text #3
  81. ID : 5
  82. Format : UTF-8
  83. Codec ID : S_TEXT/UTF8
  84. Codec ID/Info : UTF-8 Plain Text
  85. Duration : 24 min 9 s
  86. Bit rate : 95 b/s
  87. Count of elements : 412
  88. Stream size : 16.9 KiB (0%)
  89. Language : German
  90. Default : No
  91. Forced : No
  92.  
  93. Text #4
  94. ID : 6
  95. Format : UTF-8
  96. Codec ID : S_TEXT/UTF8
  97. Codec ID/Info : UTF-8 Plain Text
  98. Duration : 24 min 9 s
  99. Bit rate : 72 b/s
  100. Count of elements : 365
  101. Stream size : 12.9 KiB (0%)
  102. Language : French
  103. Default : No
  104. Forced : No
  105.  
  106. Text #5
  107. ID : 7
  108. Format : UTF-8
  109. Codec ID : S_TEXT/UTF8
  110. Codec ID/Info : UTF-8 Plain Text
  111. Duration : 24 min 9 s
  112. Bit rate : 93 b/s
  113. Count of elements : 467
  114. Stream size : 16.5 KiB (0%)
  115. Language : Italian
  116. Default : No
  117. Forced : No
  118.  
  119. Text #6
  120. ID : 8
  121. Format : UTF-8
  122. Codec ID : S_TEXT/UTF8
  123. Codec ID/Info : UTF-8 Plain Text
  124. Duration : 24 min 9 s
  125. Bit rate : 94 b/s
  126. Count of elements : 491
  127. Stream size : 16.8 KiB (0%)
  128. Language : Portuguese
  129. Default : No
  130. Forced : No
  131.  
  132. Text #7
  133. ID : 9
  134. Format : UTF-8
  135. Codec ID : S_TEXT/UTF8
  136. Codec ID/Info : UTF-8 Plain Text
  137. Duration : 24 min 9 s
  138. Bit rate : 80 b/s
  139. Count of elements : 416
  140. Stream size : 14.3 KiB (0%)
  141. Language : Spanish
  142. Default : No
  143. Forced : No
  144.  
  145. Text #8
  146. ID : 10
  147. Format : UTF-8
  148. Codec ID : S_TEXT/UTF8
  149. Codec ID/Info : UTF-8 Plain Text
  150. Duration : 24 min 9 s
  151. Bit rate : 81 b/s
  152. Count of elements : 417
  153. Stream size : 14.4 KiB (0%)
  154. Language : Spanish
  155. Default : No
  156. Forced : No
RAW Paste Data