SHARE
TWEET

Untitled

a guest Oct 6th, 2015 64 Never
Not a member of Pastebin yet? Sign Up, it unlocks many cool features!
  1. ffmpeg -t 10 -i pw.ts -vf yadif=0:0,crop=1914:1040:2:24 -s 1280x688 -c:v libx264 -preset slow -profile:v high -level 4.1 -crf 18 -x264opts colormatrix=bt709 pw_ffmpeg.mkv
  2. ffmpeg version N-74798-gd1bdaf3 Copyright (c) 2000-2015 the FFmpeg developers
  3.   built with gcc 4.9.3 (GCC)
  4.   configuration: --enable-gpl --enable-version3 --disable-w32threads --enable-avisynth --enable-bzlib --enable-fontconfig --enable-frei0r --enable-gnutls --enable-iconv --enable-libass --enable-libbluray --enable-libbs2b --enable-libcaca --enable-libdcadec --enable-libfreetype --enable-libgme --enable-libgsm --enable-libilbc --enable-libmodplug --enable-libmp3lame --enable-libopencore-amrnb --enable-libopencore-amrwb --enable-libopenjpeg --enable-libopus --enable-librtmp --enable-libschroedinger --enable-libsoxr --enable-libspeex --enable-libtheora --enable-libtwolame --enable-libvidstab --enable-libvo-aacenc --enable-libvo-amrwbenc --enable-libvorbis --enable-libvpx --enable-libwavpack --enable-libwebp --enable-libx264 --enable-libx265 --enable-libxavs --enable-libxvid --enable-lzma --enable-decklink --enable-zlib
  5.   libavutil      54. 31.100 / 54. 31.100
  6.   libavcodec     56. 60.100 / 56. 60.100
  7.   libavformat    56. 40.101 / 56. 40.101
  8.   libavdevice    56.  4.100 / 56.  4.100
  9.   libavfilter     5. 40.101 /  5. 40.101
  10.   libswscale      3.  1.101 /  3.  1.101
  11.   libswresample   1.  2.101 /  1.  2.101
  12.   libpostproc    53.  3.100 / 53.  3.100
  13. Input #0, mpegts, from 'pw.ts':
  14.   Duration: 01:54:41.96, start: 0.392311, bitrate: 13837 kb/s
  15.   Program 1
  16.     Stream #0:0[0x135]: Video: mpeg2video (Main) ([2][0][0][0] / 0x0002), yuv420p(tv), 1920x1080 [SAR 1:1 DAR 16:9], max. 24000 kb/s, 25 fps, 25 tbr, 90k tbn, 50 tbc
  17.     Stream #0:1[0x14b](eng): Audio: ac3 ([6][0][0][0] / 0x0006), 48000 Hz, 5.1(side), fltp, 384 kb/s
  18. [libx264 @ 0455edc0] using SAR=1833/1853
  19. [libx264 @ 0455edc0] using cpu capabilities: MMX2 SSE2Fast SSSE3 SSE4.2 AVX FMA3 AVX2 LZCNT BMI2
  20. [libx264 @ 0455edc0] profile High, level 4.1
  21. [libx264 @ 0455edc0] 264 - core 148 r2597 e86f3a1 - H.264/MPEG-4 AVC codec - Copyleft 2003-2015 - http://www.videolan.org/x264.html - options: cabac=1 ref=5 deblock=1:0:0 analyse=0x3:0x113 me=umh subme=8 psy=1 psy_rd=1.00:0.00 mixed_ref=1 me_range=16 chroma_me=1 trellis=1 8x8dct=1 cqm=0 deadzone=21,11 fast_pskip=1 chroma_qp_offset=-2 threads=12 lookahead_threads=2 sliced_threads=0 nr=0 decimate=1interlaced=0 bluray_compat=0 constrained_intra=0 bframes=3 b_pyramid=2 b_adapt=2 b_bias=0 direct=3 weightb=1 open_gop=0 weightp=2 keyint=250 keyint_min=25 scenecut=40 intra_refresh=0 rc_lookahead=50 rc=crf mbtree=1 crf=18.0 qcomp=0.60 qpmin=0 qpmax=69 qpstep=4 ip_ratio=1.40 aq=1:1.00
  22. Output #0, matroska, to 'Q:\Records\ffmpeg_encoder\_temp\pw.mkv':
  23.   Metadata:
  24.     encoder         : Lavf56.40.101
  25.     Stream #0:0: Video: h264 (libx264) (H264 / 0x34363248), yuv420p, 1280x688 [SAR 41151:41600 DAR 957:520], q=-1--1, 25 fps, 1k tbn, 25 tbc
  26.     Metadata:
  27.       encoder         : Lavc56.60.100 libx264
  28.     Stream #0:1(eng): Audio: vorbis (libvorbis) (oV[0][0] / 0x566F), 48000 Hz, 5.1(side), fltp
  29.     Metadata:
  30.       encoder         : Lavc56.60.100 libvorbis
  31. Stream mapping:
  32.   Stream #0:0 -> #0:0 (mpeg2video (native) -> h264 (libx264))
  33.   Stream #0:1 -> #0:1 (ac3 (native) -> vorbis (libvorbis))
  34. Press [q] to stop, [?] for help
  35. Input stream #0:1 frame changed from rate:48000 fmt:fltp ch:6 chl:5.1(side) to rate:48000 fmt:fltp ch:2 chl:stereo
  36. [swscaler @ 053e1e20] Warning: data is not aligned! This can lead to a speedloss
  37.  
  38. Input stream #0:1 frame changed from rate:48000 fmt:fltp ch:2 chl:stereo to rate
  39. :48000 fmt:fltp ch:6 chl:5.1(side)
  40. frame=   29 fps=0.0 q=0.0 size=       8kB time=00:00:00.75 bitrate=  87.9kbits/s
  41. frame=   53 fps= 53 q=0.0 size=       8kB time=00:00:01.71 bitrate=  38.7kbits/s
  42. frame=   58 fps= 38 q=0.0 size=       8kB time=00:00:01.94 bitrate=  34.1kbits/s
  43. frame=   82 fps= 41 q=23.0 size=      41kB time=00:00:02.86 bitrate= 117.0kbits/
  44. frame=   98 fps= 38 q=23.0 size=     107kB time=00:00:03.54 bitrate= 246.8kbits/
  45. frame=  113 fps= 37 q=23.0 size=     188kB time=00:00:04.14 bitrate= 371.1kbits/
  46. frame=  128 fps= 36 q=23.0 size=     268kB time=00:00:04.76 bitrate= 460.0kbits/
  47. frame=  145 fps= 35 q=23.0 size=     372kB time=00:00:05.42 bitrate= 561.9kbits/
  48. frame=  163 fps= 35 q=23.0 size=     478kB time=00:00:06.10 bitrate= 640.9kbits/
  49. frame=  180 fps= 35 q=23.0 size=     573kB time=00:00:06.83 bitrate= 686.9kbits/
  50. frame=  194 fps= 34 q=23.0 size=     708kB time=00:00:07.38 bitrate= 784.8kbits/
  51. frame=  213 fps= 34 q=23.0 size=     781kB time=00:00:08.15 bitrate= 783.9kbits/
  52. frame=  236 fps= 35 q=23.0 size=     854kB time=00:00:09.07 bitrate= 771.1kbits/
  53. frame=  250 fps= 33 q=-1.0 Lsize=    1081kB time=00:00:10.12 bitrate= 875.4kbits
  54. /s
  55. video:786kB audio:282kB subtitle:0kB other streams:0kB global headers:7kB muxing
  56.  overhead: 1.237633%
  57. [libx264 @ 0455edc0] frame I:2     Avg QP: 4.02  size:  7820
  58. [libx264 @ 0455edc0] frame P:84    Avg QP:10.24  size:  5774
  59. [libx264 @ 0455edc0] frame B:164   Avg QP:13.00  size:  1853
  60. [libx264 @ 0455edc0] consecutive B-frames:  8.0%  5.6% 24.0% 62.4%
  61. [libx264 @ 0455edc0] mb I  I16..4: 92.8%  0.2%  7.0%
  62. [libx264 @ 0455edc0] mb P  I16..4:  5.4%  3.0%  0.3%  P16..4: 13.0%  4.0%  2.5% 0.0%  0.0%    skip:71.9%
  63. [libx264 @ 0455edc0] mb B  I16..4:  0.4%  0.2%  0.0%  B16..8: 10.5%  1.3%  0.1% direct: 3.7%  skip:83.8%  L0:41.0% L1:51.1% BI: 7.8%
  64. [libx264 @ 0455edc0] 8x8 transform intra:28.0% inter:83.3%
  65. [libx264 @ 0455edc0] direct mvs  spatial:95.1% temporal:4.9%
  66. [libx264 @ 0455edc0] coded y,uvDC,uvAC intra: 11.3% 55.8% 42.2% inter: 3.2% 10.4% 2.6%
  67. [libx264 @ 0455edc0] i16 v,h,dc,p: 76% 13%  3%  9%
  68. [libx264 @ 0455edc0] i8 v,h,dc,ddl,ddr,vr,hd,vl,hu: 16%  9% 39%  6%  7%  6%  7% 5%  6%
  69. [libx264 @ 0455edc0] i4 v,h,dc,ddl,ddr,vr,hd,vl,hu: 38%  9% 18%  6%  8%  7%  5% 5%  5%
  70. [libx264 @ 0455edc0] i8c dc,h,v,p: 51% 24% 11% 13%
  71. [libx264 @ 0455edc0] Weighted P-Frames: Y:11.9% UV:10.7%
  72. [libx264 @ 0455edc0] ref P L0: 56.4%  4.6% 19.9%  8.8%  7.4%  2.8%  0.1%
  73. [libx264 @ 0455edc0] ref B L0: 74.2% 17.5%  6.7%  1.6%
  74. [libx264 @ 0455edc0] ref B L1: 89.9% 10.1%
  75. [libx264 @ 0455edc0] kb/s:643.61
  76. Press any key to continue . . .
RAW Paste Data
We use cookies for various purposes including analytics. By continuing to use Pastebin, you agree to our use of cookies as described in the Cookies Policy. OK, I Understand
 
Top