Guest User

Untitled

a guest
May 29th, 2020
17
Never
Not a member of Pastebin yet? Sign Up, it unlocks many cool features!
  1.  
  2.  
  3. E:\Downloads\Spirited.Away.2001.BluRay.1080p.DTS-HD.MA.6.1.AVC.REMUX-FraMeSToR>ffmpeg -i "E:\Downloads\Spirited.Away.2001.BluRay.1080p.DTS-HD.MA.6.1.AVC.REMUX-FraMeSToR\Spirited.Away.2001.BluRay.1080p.DTS-HD.MA.6.1.AVC.REMUX-FraMeSToR.mkv" -map 0:a:0 -bsf:a dca_core -c:a copy DTS5.1.dts
  4. ffmpeg version 4.2.2 Copyright (c) 2000-2019 the FFmpeg developers
  5. built with gcc 9.2.1 (GCC) 20200122
  6. configuration: --enable-gpl --enable-version3 --enable-sdl2 --enable-fontconfig --enable-gnutls --enable-iconv --enable-libass --enable-libdav1d --enable-libbluray --enable-libfreetype --enable-libmp3lame --enable-libopencore-amrnb --enable-libopencore-amrwb --enable-libopenjpeg --enable-libopus --enable-libshine --enable-libsnappy --enable-libsoxr --enable-libtheora --enable-libtwolame --enable-libvpx --enable-libwavpack --enable-libwebp --enable-libx264 --enable-libx265 --enable-libxml2 --enable-libzimg --enable-lzma --enable-zlib --enable-gmp --enable-libvidstab --enable-libvorbis --enable-libvo-amrwbenc --enable-libmysofa --enable-libspeex --enable-libxvid --enable-libaom --enable-libmfx --enable-amf --enable-ffnvcodec --enable-cuvid --enable-d3d11va --enable-nvenc --enable-nvdec --enable-dxva2 --enable-avisynth --enable-libopenmpt
  7. libavutil 56. 31.100 / 56. 31.100
  8. libavcodec 58. 54.100 / 58. 54.100
  9. libavformat 58. 29.100 / 58. 29.100
  10. libavdevice 58. 8.100 / 58. 8.100
  11. libavfilter 7. 57.100 / 7. 57.100
  12. libswscale 5. 5.100 / 5. 5.100
  13. libswresample 3. 5.100 / 3. 5.100
  14. libpostproc 55. 5.100 / 55. 5.100
  15. [matroska,webm @ 0000022fed608e80] Could not find codec parameters for stream 3 (Subtitle: hdmv_pgs_subtitle (pgssub)): unspecified size
  16. Consider increasing the value for the 'analyzeduration' and 'probesize' options
  17. [matroska,webm @ 0000022fed608e80] Could not find codec parameters for stream 4 (Subtitle: hdmv_pgs_subtitle (pgssub)): unspecified size
  18. Consider increasing the value for the 'analyzeduration' and 'probesize' options
  19. [matroska,webm @ 0000022fed608e80] Could not find codec parameters for stream 5 (Subtitle: hdmv_pgs_subtitle (pgssub)): unspecified size
  20. Consider increasing the value for the 'analyzeduration' and 'probesize' options
  21. [matroska,webm @ 0000022fed608e80] Could not find codec parameters for stream 7 (Subtitle: hdmv_pgs_subtitle (pgssub)): unspecified size
  22. Consider increasing the value for the 'analyzeduration' and 'probesize' options
  23. [matroska,webm @ 0000022fed608e80] Could not find codec parameters for stream 8 (Subtitle: hdmv_pgs_subtitle (pgssub)): unspecified size
  24. Consider increasing the value for the 'analyzeduration' and 'probesize' options
  25. [matroska,webm @ 0000022fed608e80] Could not find codec parameters for stream 9 (Subtitle: hdmv_pgs_subtitle (pgssub)): unspecified size
  26. Consider increasing the value for the 'analyzeduration' and 'probesize' options
  27. [matroska,webm @ 0000022fed608e80] Could not find codec parameters for stream 10 (Subtitle: hdmv_pgs_subtitle (pgssub)): unspecified size
  28. Consider increasing the value for the 'analyzeduration' and 'probesize' options
  29. [matroska,webm @ 0000022fed608e80] Could not find codec parameters for stream 11 (Subtitle: hdmv_pgs_subtitle (pgssub)): unspecified size
  30. Consider increasing the value for the 'analyzeduration' and 'probesize' options
  31. [matroska,webm @ 0000022fed608e80] Could not find codec parameters for stream 14 (Subtitle: hdmv_pgs_subtitle (pgssub)): unspecified size
  32. Consider increasing the value for the 'analyzeduration' and 'probesize' options
  33. [matroska,webm @ 0000022fed608e80] Could not find codec parameters for stream 15 (Subtitle: hdmv_pgs_subtitle (pgssub)): unspecified size
  34. Consider increasing the value for the 'analyzeduration' and 'probesize' options
  35. [matroska,webm @ 0000022fed608e80] Could not find codec parameters for stream 16 (Subtitle: hdmv_pgs_subtitle (pgssub)): unspecified size
  36. Consider increasing the value for the 'analyzeduration' and 'probesize' options
  37. Input #0, matroska,webm, from 'E:\Downloads\Spirited.Away.2001.BluRay.1080p.DTS-HD.MA.6.1.AVC.REMUX-FraMeSToR\Spirited.Away.2001.BluRay.1080p.DTS-HD.MA.6.1.AVC.REMUX-FraMeSToR.mkv':
  38. Metadata:
  39. title : Spirited Away (2001)
  40. encoder : libebml v1.3.10 + libmatroska v1.5.2
  41. creation_time : 2020-05-28T12:38:37.000000Z
  42. IMDB : tt0245429
  43. TMDB : movie/129
  44. Duration: 02:04:44.77, start: 0.000000, bitrate: 39271 kb/s
  45. Chapter #0:0: start 0.000000, end 419.294000
  46. Metadata:
  47. title : Opening Credits / The Middle of Nowhere
  48. Chapter #0:1: start 419.294000, end 798.965000
  49. Metadata:
  50. title : "It's Just A Dream"
  51. Chapter #0:2: start 798.965000, end 1227.560000
  52. Metadata:
  53. title : Finding Work At The Bathhouse
  54. Chapter #0:3: start 1227.560000, end 1716.048000
  55. Metadata:
  56. title : Meeting Yubaba
  57. Chapter #0:4: start 1716.048000, end 2088.086000
  58. Metadata:
  59. title : Sen's New Life
  60. Chapter #0:5: start 2088.086000, end 2474.097000
  61. Metadata:
  62. title : "We Have An Intruder"
  63. Chapter #0:6: start 2474.097000, end 3095.509000
  64. Metadata:
  65. title : Working For Tips
  66. Chapter #0:7: start 3095.509000, end 3482.896000
  67. Metadata:
  68. title : A Strange Visit To The Nursery
  69. Chapter #0:8: start 3482.896000, end 3999.621000
  70. Metadata:
  71. title : The Golden Seal
  72. Chapter #0:9: start 3999.621000, end 4600.137000
  73. Metadata:
  74. title : A Monster Called 'No Face'
  75. Chapter #0:10: start 4600.137000, end 5094.840000
  76. Metadata:
  77. title : The Train To Swamp Bottom
  78. Chapter #0:11: start 5094.840000, end 5478.890000
  79. Metadata:
  80. title : "What Did You Do With My Baby!"
  81. Chapter #0:12: start 5478.890000, end 5886.005000
  82. Metadata:
  83. title : A Visit With Zeniba
  84. Chapter #0:13: start 5886.005000, end 6318.729000
  85. Metadata:
  86. title : Finding The Way Home
  87. Chapter #0:14: start 6318.729000, end 6913.907000
  88. Metadata:
  89. title : One Final Test
  90. Chapter #0:15: start 6913.907000, end 7484.765000
  91. Metadata:
  92. title : End Credits
  93. Stream #0:0: Video: h264 (High), yuv420p(progressive), 1920x1080 [SAR 1:1 DAR 16:9], 23.98 fps, 23.98 tbr, 1k tbn, 47.95 tbc (default)
  94. Metadata:
  95. BPS-eng : 29928123
  96. DURATION-eng : 02:04:32.257000000
  97. NUMBER_OF_FRAMES-eng: 179155
  98. NUMBER_OF_BYTES-eng: 27953828496
  99. _STATISTICS_WRITING_APP-eng: mkvmerge v46.0.0 ('No Deeper Escape') 64-bit
  100. _STATISTICS_WRITING_DATE_UTC-eng: 2020-05-28 12:38:37
  101. _STATISTICS_TAGS-eng: BPS DURATION NUMBER_OF_FRAMES NUMBER_OF_BYTES
  102. Stream #0:1(jpn): Audio: dts (DTS-HD MA), 48000 Hz, 6.1, s32p (24 bit) (default)
  103. Metadata:
  104. title : DTS-HD MA 6.1
  105. BPS-eng : 4729994
  106. DURATION-eng : 02:04:32.267000000
  107. NUMBER_OF_FRAMES-eng: 700525
  108. NUMBER_OF_BYTES-eng: 4417972632
  109. _STATISTICS_WRITING_APP-eng: mkvmerge v46.0.0 ('No Deeper Escape') 64-bit
  110. _STATISTICS_WRITING_DATE_UTC-eng: 2020-05-28 12:38:37
  111. _STATISTICS_TAGS-eng: BPS DURATION NUMBER_OF_FRAMES NUMBER_OF_BYTES
  112. Stream #0:2(eng): Audio: dts (DTS-HD MA), 48000 Hz, 5.1(side), s32p (24 bit)
  113. Metadata:
  114. title : DTS-HD MA 5.1-ES
  115. BPS-eng : 4301785
  116. DURATION-eng : 02:04:44.758000000
  117. NUMBER_OF_FRAMES-eng: 701696
  118. NUMBER_OF_BYTES-eng: 4024727492
  119. _STATISTICS_WRITING_APP-eng: mkvmerge v46.0.0 ('No Deeper Escape') 64-bit
  120. _STATISTICS_WRITING_DATE_UTC-eng: 2020-05-28 12:38:37
  121. _STATISTICS_TAGS-eng: BPS DURATION NUMBER_OF_FRAMES NUMBER_OF_BYTES
  122. Stream #0:3(eng): Subtitle: hdmv_pgs_subtitle (default)
  123. Metadata:
  124. title : English
  125. BPS-eng : 24759
  126. DURATION-eng : 02:04:22.747000000
  127. NUMBER_OF_FRAMES-eng: 2182
  128. NUMBER_OF_BYTES-eng: 23096670
  129. _STATISTICS_WRITING_APP-eng: mkvmerge v46.0.0 ('No Deeper Escape') 64-bit
  130. _STATISTICS_WRITING_DATE_UTC-eng: 2020-05-28 12:38:37
  131. _STATISTICS_TAGS-eng: BPS DURATION NUMBER_OF_FRAMES NUMBER_OF_BYTES
  132. Stream #0:4(eng): Subtitle: hdmv_pgs_subtitle
  133. Metadata:
  134. title : English (SDH)
  135. BPS-eng : 28111
  136. DURATION-eng : 02:04:18.242000000
  137. NUMBER_OF_FRAMES-eng: 2628
  138. NUMBER_OF_BYTES-eng: 26208091
  139. _STATISTICS_WRITING_APP-eng: mkvmerge v46.0.0 ('No Deeper Escape') 64-bit
  140. _STATISTICS_WRITING_DATE_UTC-eng: 2020-05-28 12:38:37
  141. _STATISTICS_TAGS-eng: BPS DURATION NUMBER_OF_FRAMES NUMBER_OF_BYTES
  142. Stream #0:5(baq): Subtitle: hdmv_pgs_subtitle
  143. Metadata:
  144. title : Basque
  145. BPS-eng : 23638
  146. DURATION-eng : 02:03:39.537000000
  147. NUMBER_OF_FRAMES-eng: 2228
  148. NUMBER_OF_BYTES-eng: 21922994
  149. _STATISTICS_WRITING_APP-eng: mkvmerge v46.0.0 ('No Deeper Escape') 64-bit
  150. _STATISTICS_WRITING_DATE_UTC-eng: 2020-05-28 12:38:37
  151. _STATISTICS_TAGS-eng: BPS DURATION NUMBER_OF_FRAMES NUMBER_OF_BYTES
  152. Stream #0:6(cat): Subtitle: hdmv_pgs_subtitle, 1920x1080
  153. Metadata:
  154. title : Catalan
  155. BPS-eng : 22431
  156. DURATION-eng : 02:03:51.799000000
  157. NUMBER_OF_FRAMES-eng: 2230
  158. NUMBER_OF_BYTES-eng: 20838329
  159. _STATISTICS_WRITING_APP-eng: mkvmerge v46.0.0 ('No Deeper Escape') 64-bit
  160. _STATISTICS_WRITING_DATE_UTC-eng: 2020-05-28 12:38:37
  161. _STATISTICS_TAGS-eng: BPS DURATION NUMBER_OF_FRAMES NUMBER_OF_BYTES
  162. Stream #0:7(chi): Subtitle: hdmv_pgs_subtitle
  163. Metadata:
  164. title : Chinese (Simplified)
  165. BPS-eng : 20257
  166. DURATION-eng : 02:04:16.490000000
  167. NUMBER_OF_FRAMES-eng: 2242
  168. NUMBER_OF_BYTES-eng: 18881244
  169. _STATISTICS_WRITING_APP-eng: mkvmerge v46.0.0 ('No Deeper Escape') 64-bit
  170. _STATISTICS_WRITING_DATE_UTC-eng: 2020-05-28 12:38:37
  171. _STATISTICS_TAGS-eng: BPS DURATION NUMBER_OF_FRAMES NUMBER_OF_BYTES
  172. Stream #0:8(chi): Subtitle: hdmv_pgs_subtitle
  173. Metadata:
  174. title : Chinese (Traditional)
  175. BPS-eng : 20407
  176. DURATION-eng : 02:04:16.490000000
  177. NUMBER_OF_FRAMES-eng: 2302
  178. NUMBER_OF_BYTES-eng: 19021063
  179. _STATISTICS_WRITING_APP-eng: mkvmerge v46.0.0 ('No Deeper Escape') 64-bit
  180. _STATISTICS_WRITING_DATE_UTC-eng: 2020-05-28 12:38:37
  181. _STATISTICS_TAGS-eng: BPS DURATION NUMBER_OF_FRAMES NUMBER_OF_BYTES
  182. Stream #0:9(fre): Subtitle: hdmv_pgs_subtitle
  183. Metadata:
  184. title : French
  185. BPS-eng : 26677
  186. DURATION-eng : 02:04:22.747000000
  187. NUMBER_OF_FRAMES-eng: 2201
  188. NUMBER_OF_BYTES-eng: 24886250
  189. _STATISTICS_WRITING_APP-eng: mkvmerge v46.0.0 ('No Deeper Escape') 64-bit
  190. _STATISTICS_WRITING_DATE_UTC-eng: 2020-05-28 12:38:37
  191. _STATISTICS_TAGS-eng: BPS DURATION NUMBER_OF_FRAMES NUMBER_OF_BYTES
  192. Stream #0:10(ger): Subtitle: hdmv_pgs_subtitle
  193. Metadata:
  194. title : German
  195. BPS-eng : 33978
  196. DURATION-eng : 02:00:15.500000000
  197. NUMBER_OF_FRAMES-eng: 1512
  198. NUMBER_OF_BYTES-eng: 30646143
  199. _STATISTICS_WRITING_APP-eng: mkvmerge v46.0.0 ('No Deeper Escape') 64-bit
  200. _STATISTICS_WRITING_DATE_UTC-eng: 2020-05-28 12:38:37
  201. _STATISTICS_TAGS-eng: BPS DURATION NUMBER_OF_FRAMES NUMBER_OF_BYTES
  202. Stream #0:11(ger): Subtitle: hdmv_pgs_subtitle
  203. Metadata:
  204. title : German (SDH)
  205. BPS-eng : 26981
  206. DURATION-eng : 02:00:20.963000000
  207. NUMBER_OF_FRAMES-eng: 1759
  208. NUMBER_OF_BYTES-eng: 24353990
  209. _STATISTICS_WRITING_APP-eng: mkvmerge v46.0.0 ('No Deeper Escape') 64-bit
  210. _STATISTICS_WRITING_DATE_UTC-eng: 2020-05-28 12:38:37
  211. _STATISTICS_TAGS-eng: BPS DURATION NUMBER_OF_FRAMES NUMBER_OF_BYTES
  212. Stream #0:12(ita): Subtitle: hdmv_pgs_subtitle, 1920x1080
  213. Metadata:
  214. title : Italian
  215. BPS-eng : 36306
  216. DURATION-eng : 02:04:28.044000000
  217. NUMBER_OF_FRAMES-eng: 2498
  218. NUMBER_OF_BYTES-eng: 33892315
  219. _STATISTICS_WRITING_APP-eng: mkvmerge v46.0.0 ('No Deeper Escape') 64-bit
  220. _STATISTICS_WRITING_DATE_UTC-eng: 2020-05-28 12:38:37
  221. _STATISTICS_TAGS-eng: BPS DURATION NUMBER_OF_FRAMES NUMBER_OF_BYTES
  222. Stream #0:13(ita): Subtitle: hdmv_pgs_subtitle, 1920x1080
  223. Metadata:
  224. title : Italian (SDH)
  225. BPS-eng : 42378
  226. DURATION-eng : 02:04:28.044000000
  227. NUMBER_OF_FRAMES-eng: 2820
  228. NUMBER_OF_BYTES-eng: 39560422
  229. _STATISTICS_WRITING_APP-eng: mkvmerge v46.0.0 ('No Deeper Escape') 64-bit
  230. _STATISTICS_WRITING_DATE_UTC-eng: 2020-05-28 12:38:37
  231. _STATISTICS_TAGS-eng: BPS DURATION NUMBER_OF_FRAMES NUMBER_OF_BYTES
  232. Stream #0:14(jpn): Subtitle: hdmv_pgs_subtitle
  233. Metadata:
  234. title : Japanese
  235. BPS-eng : 23286
  236. DURATION-eng : 02:03:38.661000000
  237. NUMBER_OF_FRAMES-eng: 3058
  238. NUMBER_OF_BYTES-eng: 21594018
  239. _STATISTICS_WRITING_APP-eng: mkvmerge v46.0.0 ('No Deeper Escape') 64-bit
  240. _STATISTICS_WRITING_DATE_UTC-eng: 2020-05-28 12:38:37
  241. _STATISTICS_TAGS-eng: BPS DURATION NUMBER_OF_FRAMES NUMBER_OF_BYTES
  242. Stream #0:15(kor): Subtitle: hdmv_pgs_subtitle
  243. Metadata:
  244. title : Korean
  245. BPS-eng : 15536
  246. DURATION-eng : 02:00:29.931000000
  247. NUMBER_OF_FRAMES-eng: 2240
  248. NUMBER_OF_BYTES-eng: 14041215
  249. _STATISTICS_WRITING_APP-eng: mkvmerge v46.0.0 ('No Deeper Escape') 64-bit
  250. _STATISTICS_WRITING_DATE_UTC-eng: 2020-05-28 12:38:37
  251. _STATISTICS_TAGS-eng: BPS DURATION NUMBER_OF_FRAMES NUMBER_OF_BYTES
  252. Stream #0:16(spa): Subtitle: hdmv_pgs_subtitle
  253. Metadata:
  254. title : Spanish (Castilian)
  255. BPS-eng : 22428
  256. DURATION-eng : 02:04:28.086000000
  257. NUMBER_OF_FRAMES-eng: 2220
  258. NUMBER_OF_BYTES-eng: 20936882
  259. _STATISTICS_WRITING_APP-eng: mkvmerge v46.0.0 ('No Deeper Escape') 64-bit
  260. _STATISTICS_WRITING_DATE_UTC-eng: 2020-05-28 12:38:37
  261. _STATISTICS_TAGS-eng: BPS DURATION NUMBER_OF_FRAMES NUMBER_OF_BYTES
  262. Output #0, dts, to 'DTS5.1.dts':
  263. Metadata:
  264. title : Spirited Away (2001)
  265. IMDB : tt0245429
  266. TMDB : movie/129
  267. encoder : Lavf58.29.100
  268. Chapter #0:0: start 0.000000, end 419.294000
  269. Metadata:
  270. title : Opening Credits / The Middle of Nowhere
  271. Chapter #0:1: start 419.294000, end 798.965000
  272. Metadata:
  273. title : "It's Just A Dream"
  274. Chapter #0:2: start 798.965000, end 1227.560000
  275. Metadata:
  276. title : Finding Work At The Bathhouse
  277. Chapter #0:3: start 1227.560000, end 1716.048000
  278. Metadata:
  279. title : Meeting Yubaba
  280. Chapter #0:4: start 1716.048000, end 2088.086000
  281. Metadata:
  282. title : Sen's New Life
  283. Chapter #0:5: start 2088.086000, end 2474.097000
  284. Metadata:
  285. title : "We Have An Intruder"
  286. Chapter #0:6: start 2474.097000, end 3095.509000
  287. Metadata:
  288. title : Working For Tips
  289. Chapter #0:7: start 3095.509000, end 3482.896000
  290. Metadata:
  291. title : A Strange Visit To The Nursery
  292. Chapter #0:8: start 3482.896000, end 3999.621000
  293. Metadata:
  294. title : The Golden Seal
  295. Chapter #0:9: start 3999.621000, end 4600.137000
  296. Metadata:
  297. title : A Monster Called 'No Face'
  298. Chapter #0:10: start 4600.137000, end 5094.840000
  299. Metadata:
  300. title : The Train To Swamp Bottom
  301. Chapter #0:11: start 5094.840000, end 5478.890000
  302. Metadata:
  303. title : "What Did You Do With My Baby!"
  304. Chapter #0:12: start 5478.890000, end 5886.005000
  305. Metadata:
  306. title : A Visit With Zeniba
  307. Chapter #0:13: start 5886.005000, end 6318.729000
  308. Metadata:
  309. title : Finding The Way Home
  310. Chapter #0:14: start 6318.729000, end 6913.907000
  311. Metadata:
  312. title : One Final Test
  313. Chapter #0:15: start 6913.907000, end 7484.765000
  314. Metadata:
  315. title : End Credits
  316. Stream #0:0(jpn): Audio: dts (DTS-HD MA), 48000 Hz, 6.1, s32p (24 bit) (default)
  317. Metadata:
  318. title : DTS-HD MA 6.1
  319. BPS-eng : 4729994
  320. DURATION-eng : 02:04:32.267000000
  321. NUMBER_OF_FRAMES-eng: 700525
  322. NUMBER_OF_BYTES-eng: 4417972632
  323. _STATISTICS_WRITING_APP-eng: mkvmerge v46.0.0 ('No Deeper Escape') 64-bit
  324. _STATISTICS_WRITING_DATE_UTC-eng: 2020-05-28 12:38:37
  325. _STATISTICS_TAGS-eng: BPS DURATION NUMBER_OF_FRAMES NUMBER_OF_BYTES
  326. Stream mapping:
  327. Stream #0:1 -> #0:0 (copy)
  328. Press [q] to stop, [?] for help
RAW Paste Data