SHARE
TWEET

Untitled

a guest Feb 22nd, 2014 52 Never
Not a member of Pastebin yet? Sign Up, it unlocks many cool features!
  1. === Общие ===
  2. Полное имя                    : Koroleva.krasoty.i.korol.vorov.1961.DVDRip.XviD.BwTorrents.avi
  3. Формат                        : AVI
  4. Описание формата              : Audio Video Interleave
  5. Размер файла                  : 1.16 Гб
  6. Длительность                  : 2ч 25мин
  7. Общий битрейт                 : 1 135 кбит/сек
  8. Програмное обеспечение        : VirtualDubModRus 1.5.10.2 (build 2542/release)
  9. Кодирующая библиотека         : VirtualDubMod build 2542/release
  10.  
  11. === Видео ===
  12. ID (Идентификатор)            : 0
  13. Формат                        : MPEG-4 Visual
  14. Профиль формата               : Advanced Simple@L5
  15. Параметр 'BVOP'               : 2
  16. Параметр 'QPel'               : Нет
  17. Параметр 'GMC'                : No warppoints
  18. Параметр 'Matrix'             : Default (H.263)
  19. Идентификатор кодека          : XVID
  20. Подпись кодека                : XviD
  21. Длительность                  : 2ч 25мин
  22. Битрейт                       : 801 кбит/сек
  23. Ширина кадра                  : 640 пикселей
  24. Высота кадра                  : 360 пикселей
  25. Соотношение сторон            : 16:9
  26. Частота кадров                : 25.000 кадров/сек
  27. Цветовое пространство         : YUV
  28. Субдискретизация насыщенности : 4:2:0
  29. Глубина (разрядность)         : 8 bits
  30. Тип развертки                 : Прогрессивная
  31. Режим сжатия                  : С потерями
  32. Бит/(пиксель*кадр)            : 0.139
  33. Размер потока                 : 835 Мб (71%)
  34. Кодирующая библиотека         : XviD 1.2.1 (UTC 2008-12-04)
  35.  
  36. === Аудио  1 ===
  37. ID (Идентификатор)            : 1
  38. Формат                        : AC-3
  39. Описание формата              : Audio Coding 3
  40. Mode extension                : CM (complete main)
  41. Идентификатор кодека          : 2000
  42. Длительность                  : 2ч 25мин
  43. Тип битрейта                  : Постоянный
  44. Битрейт                       : 192 кбит/сек
  45. Канал(ы)                      : 2 каналов
  46. Расположение каналов          : Front: L R
  47. Частота дискретизации         : 48.0 кГц
  48. Глубина (разрядность)         : 16 bits
  49. Режим сжатия                  : С потерями
  50. Размер потока                 : 200 Мб (17%)
  51. Расположение потока           : Split accross interleaves
  52. Период чередования            : 40 мс (1.00 video frame)
  53. Предварительная загрузка      : 500 мс
  54.  
  55. === Аудио  2 ===
  56. ID (Идентификатор)            : 2
  57. Формат                        : MPEG Audio
  58. Версия формата                : Version 1
  59. Профиль формата               : Layer 3
  60. Режим                         : Joint stereo
  61. Mode extension                : MS Stereo
  62. Идентификатор кодека          : 55
  63. Подпись кодека                : MP3
  64. Длительность                  : 2ч 25мин
  65. Тип битрейта                  : Постоянный
  66. Битрейт                       : 128 кбит/сек
  67. Канал(ы)                      : 2 каналов
  68. Частота дискретизации         : 44.1 кГц
  69. Режим сжатия                  : С потерями
  70. Размер потока                 : 133 Мб (11%)
  71. Расположение потока           : Split accross interleaves
  72. Период чередования            : 40 мс (1.00 video frame)
  73. Предварительная загрузка      : 500 мс
  74. Кодирующая библиотека         : LAME3.98.4
RAW Paste Data
We use cookies for various purposes including analytics. By continuing to use Pastebin, you agree to our use of cookies as described in the Cookies Policy. OK, I Understand
Top