Secasa

Untitled

Jun 3rd, 2015
15
Never
Not a member of Pastebin yet? Sign Up, it unlocks many cool features!
  1. Format : Matroska
  2. Format version : Version 2
  3. File size : 9.72 GiB
  4. Duration : 1h 55mn
  5. Overall bit rate : 12.0 Mbps
  6. Encoded date : UTC 2015-06-02 16:58:43
  7. Writing application : mkvmerge v3.1.0 ('Happy up here') built on Jan 19 2010 12:09:24
  8. Writing library : libebml v0.7.9 + libmatroska v0.8.1
  9.  
  10. Video
  11. ID : 1
  12. Format : AVC
  13. Format/Info : Advanced Video Codec
  14. Format profile : High@L4.1
  15. Format settings, CABAC : Yes
  16. Format settings, ReFrames : 5 frames
  17. Codec ID : V_MPEG4/ISO/AVC
  18. Duration : 1h 55mn
  19. Bit rate : 9 815 Kbps
  20. Width : 1 920 pixels
  21. Height : 800 pixels
  22. Display aspect ratio : 2.40:1
  23. Frame rate mode : Constant
  24. Frame rate : 23.976 fps
  25. Color space : YUV
  26. Chroma subsampling : 4:2:0
  27. Bit depth : 8 bits
  28. Scan type : Progressive
  29. Bits/(Pixel*Frame) : 0.267
  30. Stream size : 7.94 GiB (82%)
  31. Writing library : x264 core 142 r2431+42 c69a006 tMod [8-bit@all X86_64]
  32. Encoding settings : cabac=1 / ref=5 / deblock=1:-3:-3 / analyse=0x3:0x113 / me=tesa / subme=10 / psy=1 / fade_compensate=0.00 / psy_rd=1.00:0.00 / mixed_ref=1 / me_range=24 / chroma_me=1 / trellis=2 / 8x8dct=1 / cqm=0 / deadzone=21,11 / fast_pskip=0 / chroma_qp_offset=-2 / threads=18 / lookahead_threads=3 / sliced_threads=0 / nr=0 / decimate=0 / interlaced=0 / bluray_compat=0 / constrained_intra=0 / fgo=0 / bframes=8 / b_pyramid=2 / b_adapt=2 / b_bias=0 / direct=3 / weightb=1 / open_gop=0 / weightp=2 / keyint=250 / keyint_min=23 / scenecut=40 / intra_refresh=0 / rc_lookahead=40 / rc=crf / mbtree=0 / crf=16.5000 / qcomp=0.70 / qpmin=0:0:0 / qpmax=69:69:69 / qpstep=4 / vbv_maxrate=62500 / vbv_bufsize=78125 / crf_max=0.0 / nal_hrd=none / filler=0 / ip_ratio=1.30 / pb_ratio=1.20 / aq=4:0.60 / aq-sensitivity=10.00 / aq-factor=1.00:1.00:1.00 / aq2=0 / aq3=0
  33. Language : English
  34. Default : No
  35. Forced : No
  36.  
  37. Audio #1
  38. ID : 2
  39. Format : AC-3
  40. Format/Info : Audio Coding 3
  41. Mode extension : CM (complete main)
  42. Format settings, Endianness : Big
  43. Codec ID : A_AC3
  44. Duration : 1h 55mn
  45. Bit rate mode : Constant
  46. Bit rate : 448 Kbps
  47. Channel(s) : 6 channels
  48. Channel positions : Front: L C R, Side: L R, LFE
  49. Sampling rate : 48.0 KHz
  50. Bit depth : 16 bits
  51. Compression mode : Lossy
  52. Stream size : 371 MiB (4%)
  53. Language : Spanish
  54. Default : Yes
  55. Forced : No
  56.  
  57. Audio #2
  58. ID : 3
  59. Format : DTS
  60. Format/Info : Digital Theater Systems
  61. Mode : 16
  62. Format settings, Endianness : Big
  63. Codec ID : A_DTS
  64. Duration : 1h 55mn
  65. Bit rate mode : Constant
  66. Bit rate : 1 509 Kbps
  67. Channel(s) : 6 channels
  68. Channel positions : Front: L C R, Side: L R, LFE
  69. Sampling rate : 48.0 KHz
  70. Bit depth : 24 bits
  71. Compression mode : Lossy
  72. Delay relative to video : 11ms
  73. Stream size : 1.22 GiB (13%)
  74. Language : English
  75. Default : No
  76. Forced : No
  77.  
  78. Text #1
  79. ID : 4
  80. Format : UTF-8
  81. Codec ID : S_TEXT/UTF8
  82. Codec ID/Info : UTF-8 Plain Text
  83. Title : Forzados
  84. Language : Spanish
  85. Default : Yes
  86. Forced : Yes
  87.  
  88. Text #2
  89. ID : 5
  90. Format : UTF-8
  91. Codec ID : S_TEXT/UTF8
  92. Codec ID/Info : UTF-8 Plain Text
  93. Title : Completos
  94. Language : Spanish
  95. Default : No
  96. Forced : No
  97.  
  98. Text #3
  99. ID : 6
  100. Format : UTF-8
  101. Codec ID : S_TEXT/UTF8
  102. Codec ID/Info : UTF-8 Plain Text
  103. Title : Completos
  104. Language : English
  105. Default : No
  106. Forced : No
  107.  
  108. Menu
  109. 00:00:00.000 : en:Chapter 1
  110. 00:07:49.218 : en:Chapter 2
  111. 00:20:53.751 : en:Chapter 3
  112. 00:31:51.076 : en:Chapter 4
  113. 00:43:13.340 : en:Chapter 5
  114. 00:52:40.407 : en:Chapter 6
  115. 01:02:22.655 : en:Chapter 7
  116. 01:11:45.801 : en:Chapter 8
  117. 01:20:09.971 : en:Chapter 9
  118. 01:28:44.694 : en:Chapter 10
  119. 01:36:39.835 : en:Chapter 11
  120. 01:43:38.127 : en:Chapter 12
  121. 01:47:06.586 : en:Chapter 13
  122. 01:48:25.000 : en:Chapter 14
RAW Paste Data