Guest User

Untitled

a guest
Mar 7th, 2011
169
Never
Not a member of Pastebin yet? Sign Up, it unlocks many cool features!
  1. FILE "WIPEOUT2.bin" BINARY
  2. TRACK 01 MODE2/2352
  3. INDEX 01 00:00:00
  4. TRACK 02 AUDIO
  5. INDEX 01 08:11:29
  6. TRACK 03 AUDIO
  7. INDEX 01 14:04:29
  8. TRACK 04 AUDIO
  9. INDEX 01 18:34:20
  10. TRACK 05 AUDIO
  11. INDEX 01 24:07:57
  12. TRACK 06 AUDIO
  13. INDEX 01 29:29:31
  14. TRACK 07 AUDIO
  15. INDEX 01 35:36:54
  16. TRACK 08 AUDIO
  17. INDEX 01 40:18:31
  18. TRACK 09 AUDIO
  19. INDEX 01 45:09:11
  20. TRACK 10 AUDIO
  21. INDEX 01 51:17:34
  22. TRACK 11 AUDIO
  23. INDEX 01 55:58:61
  24. TRACK 12 AUDIO
  25. INDEX 01 62:13:36
RAW Paste Data

Adblocker detected! Please consider disabling it...

We've detected AdBlock Plus or some other adblocking software preventing Pastebin.com from fully loading.

We don't have any obnoxious sound, or popup ads, we actively block these annoying types of ads!

Please add Pastebin.com to your ad blocker whitelist or disable your adblocking software.

×