SHARE
TWEET

Untitled

a guest Mar 28th, 2016 62 Never
Not a member of Pastebin yet? Sign Up, it unlocks many cool features!
  1. Original [ffmpeg -i "C0371.mp4" -vcodec copy -acodec copy "C0371.mov"]
  2.  
  3. ffprobe C0371.mov
  4. ffprobe version N-71102-g1f5d1ee Copyright (c) 2007-2015 the FFmpeg developers
  5.   built with gcc 4.9.2 (GCC)
  6.   configuration: --enable-gpl --enable-version3 --disable-w32threads --enable-av
  7. isynth --enable-bzlib --enable-fontconfig --enable-frei0r --enable-gnutls --enab
  8. le-iconv --enable-libass --enable-libbluray --enable-libbs2b --enable-libcaca --
  9. enable-libfreetype --enable-libgme --enable-libgsm --enable-libilbc --enable-lib
  10. modplug --enable-libmp3lame --enable-libopencore-amrnb --enable-libopencore-amrw
  11. b --enable-libopenjpeg --enable-libopus --enable-librtmp --enable-libschroedinge
  12. r --enable-libsoxr --enable-libspeex --enable-libtheora --enable-libtwolame --en
  13. able-libvidstab --enable-libvo-aacenc --enable-libvo-amrwbenc --enable-libvorbis
  14.  --enable-libvpx --enable-libwavpack --enable-libwebp --enable-libx264 --enable-
  15. libx265 --enable-libxavs --enable-libxvid --enable-lzma --enable-decklink --enab
  16. le-zlib
  17.   libavutil      54. 20.101 / 54. 20.101
  18.   libavcodec     56. 30.100 / 56. 30.100
  19.   libavformat    56. 26.101 / 56. 26.101
  20.   libavdevice    56.  4.100 / 56.  4.100
  21.   libavfilter     5. 13.101 /  5. 13.101
  22.   libswscale      3.  1.101 /  3.  1.101
  23.   libswresample   1.  1.100 /  1.  1.100
  24.   libpostproc    53.  3.100 / 53.  3.100
  25. Input #0, mov,mp4,m4a,3gp,3g2,mj2, from 'C0371.mov':
  26.   Metadata:
  27.     major_brand     : qt
  28.     minor_version   : 512
  29.     compatible_brands: qt
  30.     encoder         : Lavf56.26.101
  31.   Duration: 00:00:01.00, start: 0.000000, bitrate: 50183 kb/s
  32.     Stream #0:0(eng): Video: h264 (High) (avc1 / 0x31637661), yuv420p(tv), 1920x
  33. 1080 [SAR 1:1 DAR 16:9], 48642 kb/s, 23.98 fps, 23.98 tbr, 24k tbn, 47.95 tbc (d
  34. efault)
  35.     Metadata:
  36.       handler_name    : DataHandler
  37.       encoder         : AVC Coding
  38.     Stream #0:1(eng): Audio: pcm_s16be (twos / 0x736F7774), 48000 Hz, stereo, s1
  39. 6, 1536 kb/s (default)
  40.     Metadata:
  41.       handler_name    : DataHandler
  42.      
  43.  =======================================================================================
  44.  New with
  45.  
  46.  ffmpeg -i "C0371.mp4" -c copy -map 0 "C0371.mov"
  47.  
  48.  ffprobe C0371.mov
  49.  ffprobe version N-71102-g1f5d1ee Copyright (c) 2007-2015 the FFmpeg developers
  50.    built with gcc 4.9.2 (GCC)
  51.    configuration: --enable-gpl --enable-version3 --disable-w32threads --enable-av
  52.  isynth --enable-bzlib --enable-fontconfig --enable-frei0r --enable-gnutls --enab
  53.  le-iconv --enable-libass --enable-libbluray --enable-libbs2b --enable-libcaca --
  54.  enable-libfreetype --enable-libgme --enable-libgsm --enable-libilbc --enable-lib
  55.  modplug --enable-libmp3lame --enable-libopencore-amrnb --enable-libopencore-amrw
  56.  b --enable-libopenjpeg --enable-libopus --enable-librtmp --enable-libschroedinge
  57.  r --enable-libsoxr --enable-libspeex --enable-libtheora --enable-libtwolame --en
  58.  able-libvidstab --enable-libvo-aacenc --enable-libvo-amrwbenc --enable-libvorbis
  59.   --enable-libvpx --enable-libwavpack --enable-libwebp --enable-libx264 --enable-
  60.  libx265 --enable-libxavs --enable-libxvid --enable-lzma --enable-decklink --enab
  61.  le-zlib
  62.    libavutil      54. 20.101 / 54. 20.101
  63.    libavcodec     56. 30.100 / 56. 30.100
  64.    libavformat    56. 26.101 / 56. 26.101
  65.    libavdevice    56.  4.100 / 56.  4.100
  66.    libavfilter     5. 13.101 /  5. 13.101
  67.    libswscale      3.  1.101 /  3.  1.101
  68.    libswresample   1.  1.100 /  1.  1.100
  69.    libpostproc    53.  3.100 / 53.  3.100
  70.  [mov,mp4,m4a,3gp,3g2,mj2 @ 0000000002e6aca0] overread end of atom 'stsd' by 24 b
  71.  ytes
  72.  Input #0, mov,mp4,m4a,3gp,3g2,mj2, from 'C0371.mov':
  73.    Metadata:
  74.      major_brand     : qt
  75.      minor_version   : 512
  76.      compatible_brands: qt
  77.      encoder         : Lavf56.26.101
  78.    Duration: 00:00:01.00, start: 0.000000, bitrate: 50384 kb/s
  79.      Stream #0:0(eng): Video: h264 (High) (avc1 / 0x31637661), yuv420p(tv), 1920x
  80.  1080 [SAR 1:1 DAR 16:9], 48642 kb/s, 23.98 fps, 23.98 tbr, 24k tbn, 47.95 tbc (d
  81.  efault)
  82.      Metadata:
  83.        handler_name    : DataHandler
  84.        encoder         : AVC Coding
  85.      Stream #0:1(eng): Audio: pcm_s16be (twos / 0x736F7774), 48000 Hz, stereo, s1
  86.  6, 1536 kb/s (default)
  87.      Metadata:
  88.        handler_name    : DataHandler
  89.      Stream #0:2(eng): Data: none (stts / 0x73747473), 196 kb/s (default)
  90.      Metadata:
  91.        handler_name    : DataHandler
  92.  Unsupported codec with id 0 for input stream 2
RAW Paste Data
We use cookies for various purposes including analytics. By continuing to use Pastebin, you agree to our use of cookies as described in the Cookies Policy. OK, I Understand
 
Top