Guest User

dasdmakjnkae01

a guest
Feb 25th, 2018
190
Never
Not a member of Pastebin yet? Sign Up, it unlocks many cool features!
  1. General
  2. Unique ID : 324359319862317099371786812815755544858 (0xF405552AEF72E4FCD2464D784EA1891A)
  3. Complete name : [Reaktor] 91 Days - E01 [1080p][x265][10-bit][Dual-Audio].mkv
  4. Format : Matroska
  5. Format version : Version 4 / Version 2
  6. File size : 364 MiB
  7. Duration : 24 min 28 s
  8. Overall bit rate : 2 077 kb/s
  9. Movie name : [Reaktor] 91 Days - E01
  10. Encoded date : UTC 2018-02-24T02:10:58Z
  11. Writing application : HandBrake 1.0.7 2017040900
  12. Writing library : Lavf57.7.2
  13.  
  14. Video
  15. ID : 1
  16. Format : HEVC
  17. Format/Info : High Efficiency Video Coding
  18. Format profile : Main 10@L4@Main
  19. Codec ID : V_MPEGH/ISO/HEVC
  20. Duration : 24 min 28 s
  21. Bit rate : 1 651 kb/s
  22. Width : 1 920 pixels
  23. Height : 1 080 pixels
  24. Display aspect ratio : 16:9
  25. Frame rate mode : Constant
  26. Frame rate : 23.976 (24000/1001) FPS
  27. Color space : YUV
  28. Chroma subsampling : 4:2:0
  29. Bit depth : 10 bits
  30. Bits/(Pixel*Frame) : 0.033
  31. Stream size : 289 MiB (80%)
  32. Writing library : x265 2.3:[Windows][GCC 5.3.1][64 bit] 10bit
  33. Encoding settings : cpuid=1173503 / frame-threads=2 / numa-pools=4 / wpp / no-pmode / no-pme / no-psnr / no-ssim / log-level=2 / input-csp=1 / input-res=1920x1080 / interlace=0 / total-frames=0 / level-idc=0 / high-tier=1 / uhd-bd=0 / ref=3 / no-allow-non-conformance / no-repeat-headers / annexb / no-aud / no-hrd / info / hash=0 / no-temporal-layers / open-gop / min-keyint=24 / keyint=240 / bframes=4 / b-adapt=0 / b-pyramid / bframe-bias=0 / rc-lookahead=15 / lookahead-slices=6 / scenecut=40 / no-intra-refresh / ctu=64 / min-cu-size=8 / no-rect / no-amp / max-tu-size=32 / tu-inter-depth=1 / tu-intra-depth=1 / limit-tu=0 / rdoq-level=0 / dynamic-rd=0.00 / signhide / no-tskip / nr-intra=0 / nr-inter=0 / no-constrained-intra / strong-intra-smoothing / max-merge=2 / limit-refs=3 / no-limit-modes / me=1 / subme=2 / merange=57 / temporal-mvp / weightp / no-weightb / no-analyze-src-pics / deblock=0:0 / sao / no-sao-non-deblock / rd=2 / no-early-skip / rskip / fast-intra / no-tskip-fast / no-cu-lossless / no-b-intra / rdpenalty=0 / psy-rd=2.00 / psy-rdoq=0.00 / no-rd-refine / analysis-mode=0 / no-lossless / cbqpoffs=0 / crqpoffs=0 / rc=crf / crf=18.0 / qcomp=0.60 / qpstep=4 / stats-write=0 / stats-read=0 / ipratio=1.40 / pbratio=1.30 / aq-mode=1 / aq-strength=1.00 / cutree / zone-count=0 / no-strict-cbr / qg-size=32 / no-rc-grain / qpmax=69 / qpmin=0 / sar=1 / overscan=0 / videoformat=5 / range=0 / colorprim=1 / transfer=1 / colormatrix=1 / chromaloc=0 / display-window=0 / max-cll=0,0 / min-luma=0 / max-luma=1023 / log2-max-poc-lsb=8 / vui-timing-info / vui-hrd-info / slices=1 / opt-qp-pps / opt-ref-list-length-pps / no-multi-pass-opt-rps / scenecut-bias=0.05 / no-opt-cu-delta-qp / no-aq-motion / no-hdr
  34. Default : Yes
  35. Forced : No
  36. Color range : Limited
  37. Color primaries : BT.709
  38. Transfer characteristics : BT.709
  39. Matrix coefficients : BT.709
  40.  
  41. Audio #1
  42. ID : 2
  43. Format : AC-3
  44. Format/Info : Audio Coding 3
  45. Codec ID : A_AC3
  46. Duration : 24 min 28 s
  47. Bit rate mode : Constant
  48. Bit rate : 192 kb/s
  49. Channel(s) : 2 channels
  50. Channel positions : Front: L R
  51. Sampling rate : 48.0 kHz
  52. Frame rate : 31.250 FPS (1536 SPF)
  53. Bit depth : 16 bits
  54. Compression mode : Lossy
  55. Delay relative to video : -1 s 7 ms
  56. Stream size : 33.6 MiB (9%)
  57. Title : English
  58. Service kind : Complete Main
  59. Default : No
  60. Forced : No
  61.  
  62. Audio #2
  63. ID : 3
  64. Format : AC-3
  65. Format/Info : Audio Coding 3
  66. Codec ID : A_AC3
  67. Duration : 24 min 28 s
  68. Bit rate mode : Constant
  69. Bit rate : 192 kb/s
  70. Channel(s) : 2 channels
  71. Channel positions : Front: L R
  72. Sampling rate : 48.0 kHz
  73. Frame rate : 31.250 FPS (1536 SPF)
  74. Bit depth : 16 bits
  75. Compression mode : Lossy
  76. Delay relative to video : -1 s 7 ms
  77. Stream size : 33.6 MiB (9%)
  78. Title : Japanese
  79. Service kind : Complete Main
  80. Default : Yes
  81. Forced : No
  82.  
  83. Text #1
  84. ID : 4
  85. Format : PGS
  86. Codec ID : S_HDMV/PGS
  87. Codec ID/Info : Picture based subtitle format used on BDs/HD-DVDs
  88. Title : Subtitles
  89. Default : Yes
  90. Forced : No
  91.  
  92. Text #2
  93. ID : 5
  94. Format : PGS
  95. Codec ID : S_HDMV/PGS
  96. Codec ID/Info : Picture based subtitle format used on BDs/HD-DVDs
  97. Title : Signs/Song for Dub
  98. Default : No
  99. Forced : No
RAW Paste Data