Secasa

Untitled

Aug 5th, 2015
39
Never
Not a member of Pastebin yet? Sign Up, it unlocks many cool features!
  1. ormat : Matroska
  2. Format version : Version 2
  3. File size : 4.05 GiB
  4. Duration : 1h 38mn
  5. Overall bit rate : 5 896 Kbps
  6. Encoded date : UTC 2015-08-05 07:28:46
  7. Writing application : mkvmerge v4.6.0 ('Still Crazy After All These Years') creado el Mar 10 2011 02:50:32
  8. Writing library : libebml v1.2.0 + libmatroska v1.1.0
  9.  
  10. Video
  11. ID : 1
  12. Format : AVC
  13. Format/Info : Advanced Video Codec
  14. Format profile : High@L4.1
  15. Format settings, CABAC : No
  16. Format settings, ReFrames : 2 frames
  17. Format settings, GOP : M=8, N=12
  18. Codec ID : V_MPEG4/ISO/AVC
  19. Duration : 1h 38mn
  20. Bit rate : 4 883 Kbps
  21. Width : 1 920 pixels
  22. Height : 1 080 pixels
  23. Display aspect ratio : 16:9
  24. Frame rate mode : Constant
  25. Frame rate : 24.000 fps
  26. Color space : YUV
  27. Chroma subsampling : 4:2:0
  28. Bit depth : 8 bits
  29. Scan type : Progressive
  30. Bits/(Pixel*Frame) : 0.098
  31. Stream size : 3.35 GiB (83%)
  32. Language : English
  33. Default : Yes
  34. Forced : No
  35.  
  36. Audio #1
  37. ID : 2
  38. Format : AC-3
  39. Format/Info : Audio Coding 3
  40. Mode extension : CM (complete main)
  41. Format settings, Endianness : Big
  42. Codec ID : A_AC3
  43. Duration : 1h 38mn
  44. Bit rate mode : Constant
  45. Bit rate : 448 Kbps
  46. Channel(s) : 6 channels
  47. Channel positions : Front: L C R, Side: L R, LFE
  48. Sampling rate : 48.0 KHz
  49. Bit depth : 16 bits
  50. Compression mode : Lossy
  51. Stream size : 315 MiB (8%)
  52. Language : Spanish
  53. Default : Yes
  54. Forced : Yes
  55.  
  56. Audio #2
  57. ID : 3
  58. Format : AC-3
  59. Format/Info : Audio Coding 3
  60. Mode extension : CM (complete main)
  61. Format settings, Endianness : Big
  62. Codec ID : A_AC3
  63. Duration : 1h 38mn
  64. Bit rate mode : Constant
  65. Bit rate : 448 Kbps
  66. Channel(s) : 6 channels
  67. Channel positions : Front: L C R, Side: L R, LFE
  68. Sampling rate : 48.0 KHz
  69. Bit depth : 16 bits
  70. Compression mode : Lossy
  71. Stream size : 315 MiB (8%)
  72. Language : English
  73. Default : No
  74. Forced : No
  75.  
  76. Text #1
  77. ID : 4
  78. Format : UTF-8
  79. Codec ID : S_TEXT/UTF8
  80. Codec ID/Info : UTF-8 Plain Text
  81. Language : Spanish
  82. Default : No
  83. Forced : No
  84.  
  85. Text #2
  86. ID : 5
  87. Format : UTF-8
  88. Codec ID : S_TEXT/UTF8
  89. Codec ID/Info : UTF-8 Plain Text
  90. Language : English
  91. Default : No
  92. Forced : No
  93.  
  94. Menu
  95. 00:00:00.000 : en:Chapter 01
  96. 00:07:01.458 : en:Chapter 02
  97. 00:10:52.750 : en:Chapter 03
  98. 00:17:59.458 : en:Chapter 04
  99. 00:23:51.041 : en:Chapter 05
  100. 00:33:34.916 : en:Chapter 06
  101. 00:38:04.625 : en:Chapter 07
  102. 00:41:46.875 : en:Chapter 08
  103. 00:48:51.708 : en:Chapter 09
  104. 00:53:35.458 : en:Chapter 10
  105. 00:56:38.333 : en:Chapter 11
  106. 01:03:26.958 : en:Chapter 12
  107. 01:12:37.083 : en:Chapter 13
  108. 01:17:05.750 : en:Chapter 14
  109. 01:21:50.541 : en:Chapter 15
  110. 01:33:53.041 : en:Chapter 16
RAW Paste Data

Adblocker detected! Please consider disabling it...

We've detected AdBlock Plus or some other adblocking software preventing Pastebin.com from fully loading.

We don't have any obnoxious sound, or popup ads, we actively block these annoying types of ads!

Please add Pastebin.com to your ad blocker whitelist or disable your adblocking software.

×