Guest User

Untitled

a guest
Feb 16th, 2016
157
Never
Not a member of Pastebin yet? Sign Up, it unlocks many cool features!
  1. Format : QuickTime
  2. Format/Info : Original Apple specifications
  3. File size : 8.60 GiB
  4. Duration : 3mn 41s
  5. Overall bit rate mode : Variable
  6. Overall bit rate : 334 Mbps
  7. Encoded date : UTC 2014-07-17 21:18:28
  8. Tagged date : UTC 2014-07-17 21:18:28
  9. Writing library : Apple QuickTime
  10.  
  11. Video
  12. ID : 1
  13. Format : ProRes
  14. Format version : Version 1
  15. Format profile : 4444
  16. Codec ID : ap4h
  17. Duration : 3mn 41s
  18. Bit rate mode : Variable
  19. Bit rate : 259 Mbps
  20. Width : 1 920 pixels
  21. Clean aperture width : 1 888 pixels
  22. Height : 1 080 pixels
  23. Clean aperture height : 1 062 pixels
  24. Display aspect ratio : 16:9
  25. Clean aperture display aspect ratio : 16:9
  26. Frame rate mode : Constant
  27. Frame rate : 25.000 fps
  28. Chroma subsampling : 4:4:4
  29. Scan type : Interlaced
  30. Scan type, store method : Interleaved fields
  31. Scan order : Top Field First
  32. Bits/(Pixel*Frame) : 4.989
  33. Stream size : 6.66 GiB (77%)
  34. Writing library : apd0
  35. Language : English
  36. Encoded date : UTC 2014-07-17 21:18:28
  37. Tagged date : UTC 1904-01-01 00:00:00
  38. Color primaries : BT.709
  39. Transfer characteristics : BT.709
  40. Matrix coefficients : BT.709
  41. matrix_coefficients_Original : BT.709
  42.  
  43. Audio
  44. ID : 3
  45. Format : PCM
  46. Format settings, Endianness : Little
  47. Format settings, Sign : Signed
  48. Codec ID : sowt
  49. Duration : 3mn 41s
  50. Bit rate mode : Constant
  51. Bit rate : 1 536 Kbps
  52. Channel(s) : 2 channels
  53. Channel positions : Front: L R
  54. Sampling rate : 48.0 KHz
  55. Bit depth : 16 bits
  56. Stream size : 40.5 MiB (0%)
  57. Language : English
  58. Encoded date : UTC 2014-07-17 21:18:28
  59. Tagged date : UTC 1904-01-01 00:00:00
  60.  
  61. Other
  62. ID : 2
  63. Type : Time code
  64. Format : QuickTime TC
  65. Duration : 3mn 41s
  66. Time code of first frame : 01:00:00:00
  67. Time code, striped : Yes
  68. Title : AS_DD
  69. Language : English
  70. Encoded date : UTC 2014-07-17 21:18:28
  71. Tagged date : UTC 1904-01-01 00:00:00
  72. Bit rate mode : CBR
RAW Paste Data

Adblocker detected! Please consider disabling it...

We've detected AdBlock Plus or some other adblocking software preventing Pastebin.com from fully loading.

We don't have any obnoxious sound, or popup ads, we actively block these annoying types of ads!

Please add Pastebin.com to your ad blocker whitelist or disable your adblocking software.

×