Guest User

Untitled

a guest
Oct 15th, 2021
58
Never
Not a member of Pastebin yet? Sign Up, it unlocks many cool features!
  1. General
  2. Unique ID : 306864324396909511506981037586369431598 (0xE6DBEB4B949A9ABDD620DAE178E3482E)
  3. Complete name : E:\Video\The.Suicide.Squad.2021.BDREMUX.1080p.seleZen.mkv
  4. Format : Matroska
  5. Format version : Version 4
  6. File size : 26.2 GiB
  7. Duration : 2 h 12 min
  8. Overall bit rate mode : Variable
  9. Overall bit rate : 28.4 Mb/s
  10. Movie name : The Suicide Squad 2021 from seleZen
  11. Encoded date : UTC 2021-10-15 20:28:12
  12. Writing application : mkvmerge v59.0.0 ('Shining Star') 64-bit
  13. Writing library : libebml v1.4.2 + libmatroska v1.6.4
  14.  
  15. Video
  16. ID : 1
  17. Format : AVC
  18. Format/Info : Advanced Video Codec
  19. Format profile : High@L4.1
  20. Format settings : CABAC / 2 Ref Frames
  21. Format settings, CABAC : Yes
  22. Format settings, Reference frames : 2 frames
  23. Format settings, GOP : M=1, N=10
  24. Codec ID : V_MPEG4/ISO/AVC
  25. Duration : 2 h 12 min
  26. Bit rate mode : Variable
  27. Bit rate : 23.5 Mb/s
  28. Width : 1 920 pixels
  29. Height : 1 080 pixels
  30. Display aspect ratio : 16:9
  31. Frame rate mode : Constant
  32. Frame rate : 23.976 (24000/1001) FPS
  33. Color space : YUV
  34. Chroma subsampling : 4:2:0
  35. Bit depth : 8 bits
  36. Scan type : Progressive
  37. Bits/(Pixel*Frame) : 0.473
  38. Stream size : 21.7 GiB (83%)
  39. Language : English
  40. Default : Yes
  41. Forced : No
  42.  
  43. Audio #1
  44. ID : 2
  45. Format : E-AC-3
  46. Format/Info : Enhanced AC-3
  47. Commercial name : Dolby Digital Plus
  48. Codec ID : A_EAC3
  49. Duration : 2 h 12 min
  50. Bit rate mode : Constant
  51. Bit rate : 448 kb/s
  52. Channel(s) : 6 channels
  53. Channel layout : L R C LFE Ls Rs
  54. Sampling rate : 48.0 kHz
  55. Frame rate : 31.250 FPS (1536 SPF)
  56. Compression mode : Lossy
  57. Stream size : 423 MiB (2%)
  58. Title : Dub
  59. Language : Russian
  60. Service kind : Complete Main
  61. Default : Yes
  62. Forced : Yes
  63.  
  64. Audio #2
  65. ID : 3
  66. Format : AC-3
  67. Format/Info : Audio Coding 3
  68. Commercial name : Dolby Digital
  69. Codec ID : A_AC3
  70. Duration : 2 h 12 min
  71. Bit rate mode : Constant
  72. Bit rate : 448 kb/s
  73. Channel(s) : 6 channels
  74. Channel layout : L R C LFE Ls Rs
  75. Sampling rate : 48.0 kHz
  76. Frame rate : 31.250 FPS (1536 SPF)
  77. Compression mode : Lossy
  78. Stream size : 423 MiB (2%)
  79. Title : Dub
  80. Language : Russian
  81. Service kind : Complete Main
  82. Default : No
  83. Forced : No
  84.  
  85. Audio #3
  86. ID : 4
  87. Format : MLP FBA 16-ch
  88. Format/Info : Meridian Lossless Packing FBA with 16-channel presentation
  89. Commercial name : Dolby TrueHD with Dolby Atmos
  90. Codec ID : A_TRUEHD
  91. Duration : 2 h 12 min
  92. Bit rate mode : Variable
  93. Bit rate : 3 455 kb/s
  94. Maximum bit rate : 5 478 kb/s
  95. Channel(s) : 8 channels
  96. Channel layout : L R C LFE Ls Rs Lb Rb
  97. Sampling rate : 48.0 kHz
  98. Frame rate : 1 200.000 FPS (40 SPF)
  99. Compression mode : Lossless
  100. Stream size : 3.19 GiB (12%)
  101. Title : Original
  102. Language : English
  103. Default : No
  104. Forced : No
  105. Number of dynamic objects : 11
  106. Bed channel count : 1 channel
  107. Bed channel configuration : LFE
  108.  
  109. Audio #4
  110. ID : 5
  111. Format : AC-3
  112. Format/Info : Audio Coding 3
  113. Commercial name : Dolby Digital
  114. Format settings : Dolby Surround EX
  115. Codec ID : A_AC3
  116. Duration : 2 h 12 min
  117. Bit rate mode : Constant
  118. Bit rate : 448 kb/s
  119. Channel(s) : 6 channels
  120. Channel layout : L R C LFE Ls Rs
  121. Sampling rate : 48.0 kHz
  122. Frame rate : 31.250 FPS (1536 SPF)
  123. Compression mode : Lossy
  124. Stream size : 423 MiB (2%)
  125. Language : English
  126. Service kind : Complete Main
  127. Default : No
  128. Forced : No
  129.  
  130. Text #1
  131. ID : 6
  132. Format : UTF-8
  133. Codec ID : S_TEXT/UTF8
  134. Codec ID/Info : UTF-8 Plain Text
  135. Duration : 1 h 53 min
  136. Bit rate : 5 b/s
  137. Count of elements : 109
  138. Stream size : 4.38 KiB (0%)
  139. Title : Forced
  140. Language : Russian
  141. Default : Yes
  142. Forced : Yes
  143.  
  144. Text #2
  145. ID : 7
  146. Format : UTF-8
  147. Codec ID : S_TEXT/UTF8
  148. Codec ID/Info : UTF-8 Plain Text
  149. Duration : 2 h 9 min
  150. Bit rate : 70 b/s
  151. Count of elements : 1315
  152. Stream size : 67.0 KiB (0%)
  153. Title : Full
  154. Language : Russian
  155. Default : No
  156. Forced : No
  157.  
  158. Text #3
  159. ID : 8
  160. Format : UTF-8
  161. Codec ID : S_TEXT/UTF8
  162. Codec ID/Info : UTF-8 Plain Text
  163. Duration : 2 h 11 min
  164. Bit rate : 68 b/s
  165. Count of elements : 1415
  166. Stream size : 66.2 KiB (0%)
  167. Title : Full [FOCS]
  168. Language : Russian
  169. Default : No
  170. Forced : No
  171.  
  172. Text #4
  173. ID : 9
  174. Format : UTF-8
  175. Codec ID : S_TEXT/UTF8
  176. Codec ID/Info : UTF-8 Plain Text
  177. Duration : 2 h 11 min
  178. Bit rate : 42 b/s
  179. Count of elements : 1335
  180. Stream size : 40.6 KiB (0%)
  181. Title : Full
  182. Language : English
  183. Default : No
  184. Forced : No
  185.  
  186. Text #5
  187. ID : 10
  188. Format : UTF-8
  189. Codec ID : S_TEXT/UTF8
  190. Codec ID/Info : UTF-8 Plain Text
  191. Duration : 2 h 11 min
  192. Bit rate : 61 b/s
  193. Count of elements : 2051
  194. Stream size : 59.5 KiB (0%)
  195. Title : SDH
  196. Language : English
  197. Default : No
  198. Forced : No
  199.  
  200. Menu
  201. 00:00:00.000 : Chapter 01
  202. 00:14:25.615 : Chapter 02
  203. 00:22:08.035 : Chapter 03
  204. 00:31:31.973 : Chapter 04
  205. 00:40:48.696 : Chapter 05
  206. 00:50:20.017 : Chapter 06
  207. 01:01:09.666 : Chapter 07
  208. 01:10:05.868 : Chapter 08
  209. 01:19:44.488 : Chapter 09
  210. 01:29:00.669 : Chapter 10
  211. 01:40:41.160 : Chapter 11
  212. 01:50:37.130 : Chapter 12
  213. 01:59:28.536 : Chapter 13
  214. 02:12:06.669 : Chapter 14
  215.  
  216.  
RAW Paste Data