SHARE
TWEET

Untitled

a guest Nov 27th, 2016 186 Never
Not a member of Pastebin yet? Sign Up, it unlocks many cool features!
  1. mediainfo /mnt/tv/Family-Guy.ts
  2. General
  3. ID                                       : 689 (0x2B1)
  4. Complete name                            : /mnt/tv/Family-Guy.ts
  5. Format                                   : MPEG-TS
  6. File size                                : 3.25 GiB
  7. Duration                                 : 29 min 59 s
  8. Start time                               : UTC 2016-11-05 04:29:57                 End time                                 : UTC 2016-11-05 04:59:57
  9. Overall bit rate mode                    : Variable                                Overall bit rate                         : 15.5 Mb/s
  10. Law rating                               : TV-14 (DLSV)                            
  11. Video
  12. ID                                       : 49 (0x31)
  13. Menu ID                                  : 3 (0x3)
  14. Format                                   : MPEG Video
  15. Format version                           : Version 2
  16. Format profile                           : Main@High
  17. Format settings, BVOP                    : Yes
  18. Format settings, Matrix                  : Custom
  19. Format settings, GOP                     : Variable
  20. Codec ID                                 : 2
  21. Duration                                 : 29 min 59 s
  22. Bit rate mode                            : Variable
  23. Bit rate                                 : 14.1 Mb/s
  24. Maximum bit rate                         : 24.0 Mb/s
  25. Width                                    : 1 280 pixels
  26. Height                                   : 720 pixels
  27. Display aspect ratio                     : 16:9
  28. Active Format Description                : Full frame 16:9 image
  29. Frame rate                               : 59.940 (60000/1001) FPS
  30. Color space                              : YUV
  31. Chroma subsampling                       : 4:2:0
  32. Bit depth                                : 8 bits
  33. Scan type                                : Progressive
  34. Compression mode                         : Lossy
  35. Bits/(Pixel*Frame)                       : 0.256
  36. Stream size                              : 2.96 GiB (91%)
  37.  
  38. Audio #1
  39. ID                                       : 52 (0x34)
  40. Menu ID                                  : 3 (0x3)
  41. Format                                   : AC-3
  42. Format/Info                              : Audio Coding 3
  43. Mode extension                           : CM (complete main)
  44. Format settings, Endianness              : Big
  45. Codec ID                                 : 129
  46. Duration                                 : 29 min 59 s
  47. Bit rate mode                            : Constant
  48. Bit rate                                 : 384 kb/s
  49. Channel(s)                               : 6 channels
  50. Channel positions                        : Front: L C R, Side: L R, LFE
  51. Sampling rate                            : 48.0 kHz
  52. Frame rate                               : 31.250 FPS (1536 spf)
  53. Bit depth                                : 16 bits
  54. Compression mode                         : Lossy
  55. Delay relative to video                  : -208 ms
  56. Stream size                              : 82.4 MiB (2%)
  57. Language                                 : English
RAW Paste Data
We use cookies for various purposes including analytics. By continuing to use Pastebin, you agree to our use of cookies as described in the Cookies Policy. OK, I Understand
Top