iMN0

Laura.1944.Extended.1080p.BluRay.REMUX.AVC.FLAC.1.0-EPSiLON.mkv

Jul 7th, 2021
64
Never
Not a member of Pastebin yet? Sign Up, it unlocks many cool features!
  1. General
  2. Unique ID : 108985181619057727769125987135185163210 (0x51FDC850716724C9E43D363DE3BF13CA)
  3. Complete name : Laura.1944.Extended.1080p.BluRay.REMUX.AVC.FLAC.1.0-EPSiLON.mkv
  4. Format : Matroska
  5. Format version : Version 4
  6. File size : 23.9 GiB
  7. Duration : 1 h 28 min
  8. Overall bit rate mode : Variable
  9. Overall bit rate : 38.8 Mb/s
  10. Encoded date : UTC 2018-06-26 06:50:39
  11. Writing application : mkvmerge v24.0.0 ('Beyond The Pale') 64-bit
  12. Writing library : libebml v1.3.6 + libmatroska v1.4.9
  13.  
  14. Video
  15. ID : 1
  16. Format : AVC
  17. Format/Info : Advanced Video Codec
  18. Format profile : High@L4.1
  19. Format settings : CABAC / 4 Ref Frames
  20. Format settings, CABAC : Yes
  21. Format settings, Reference frames : 4 frames
  22. Codec ID : V_MPEG4/ISO/AVC
  23. Duration : 1 h 28 min
  24. Bit rate mode : Variable
  25. Bit rate : 37.2 Mb/s
  26. Maximum bit rate : 39.5 Mb/s
  27. Width : 1 920 pixels
  28. Height : 1 080 pixels
  29. Display aspect ratio : 16:9
  30. Frame rate mode : Constant
  31. Frame rate : 23.976 (24000/1001) FPS
  32. Color space : YUV
  33. Chroma subsampling : 4:2:0
  34. Bit depth : 8 bits
  35. Scan type : Progressive
  36. Bits/(Pixel*Frame) : 0.749
  37. Stream size : 22.9 GiB (96%)
  38. Title : MPEG-4 AVC Video / 37489 kbps / 1080p / 23.976 fps / 16:9 / High Profile 4.1
  39. Language : English
  40. Default : Yes
  41. Forced : No
  42.  
  43. Audio #1
  44. ID : 2
  45. Format : FLAC
  46. Format/Info : Free Lossless Audio Codec
  47. Codec ID : A_FLAC
  48. Duration : 1 h 28 min
  49. Bit rate mode : Variable
  50. Bit rate : 568 kb/s
  51. Channel(s) : 1 channel
  52. Channel layout : C
  53. Sampling rate : 48.0 kHz
  54. Frame rate : 11.719 FPS (4096 SPF)
  55. Bit depth : 24 bits
  56. Compression mode : Lossless
  57. Stream size : 358 MiB (1%)
  58. Title : FLAC Audio / 1.0 / 48 kHz / 568 kbps / 24-bit
  59. Writing library : libFLAC 1.2.1 (UTC 2007-09-17)
  60. Language : English
  61. Default : Yes
  62. Forced : No
  63.  
  64. Audio #2
  65. ID : 3
  66. Format : AC-3
  67. Format/Info : Audio Coding 3
  68. Commercial name : Dolby Digital
  69. Codec ID : A_AC3
  70. Duration : 1 h 28 min
  71. Bit rate mode : Constant
  72. Bit rate : 192 kb/s
  73. Channel(s) : 1 channel
  74. Channel layout : C
  75. Sampling rate : 48.0 kHz
  76. Frame rate : 31.250 FPS (1536 SPF)
  77. Compression mode : Lossy
  78. Stream size : 121 MiB (0%)
  79. Title : Commentary by film professor Jeanine Basinger and composer David Raksin
  80. Language : English
  81. Service kind : Complete Main
  82. Default : No
  83. Forced : No
  84.  
  85. Audio #3
  86. ID : 4
  87. Format : AC-3
  88. Format/Info : Audio Coding 3
  89. Commercial name : Dolby Digital
  90. Codec ID : A_AC3
  91. Duration : 1 h 28 min
  92. Bit rate mode : Constant
  93. Bit rate : 192 kb/s
  94. Channel(s) : 1 channel
  95. Channel layout : C
  96. Sampling rate : 48.0 kHz
  97. Frame rate : 31.250 FPS (1536 SPF)
  98. Compression mode : Lossy
  99. Stream size : 121 MiB (0%)
  100. Title : Commentary by film historian Rudy Behlmer
  101. Language : English
  102. Service kind : Complete Main
  103. Default : No
  104. Forced : No
  105.  
  106. Text #1
  107. ID : 5
  108. Format : PGS
  109. Codec ID : S_HDMV/PGS
  110. Codec ID/Info : Picture based subtitle format used on BDs/HD-DVDs
  111. Duration : 1 h 26 min
  112. Bit rate : 54.9 kb/s
  113. Count of elements : 2718
  114. Stream size : 34.1 MiB (0%)
  115. Title : SDH
  116. Language : English
  117. Default : No
  118. Forced : No
  119.  
  120. Text #2
  121. ID : 6
  122. Format : PGS
  123. Codec ID : S_HDMV/PGS
  124. Codec ID/Info : Picture based subtitle format used on BDs/HD-DVDs
  125. Duration : 1 h 26 min
  126. Bit rate : 39.9 kb/s
  127. Count of elements : 1992
  128. Stream size : 24.8 MiB (0%)
  129. Language : Dutch
  130. Default : No
  131. Forced : No
  132.  
  133. Text #3
  134. ID : 7
  135. Format : PGS
  136. Codec ID : S_HDMV/PGS
  137. Codec ID/Info : Picture based subtitle format used on BDs/HD-DVDs
  138. Duration : 1 h 26 min
  139. Bit rate : 36.9 kb/s
  140. Count of elements : 2298
  141. Stream size : 22.9 MiB (0%)
  142. Language : French
  143. Default : No
  144. Forced : No
  145.  
  146. Text #4
  147. ID : 8
  148. Format : PGS
  149. Codec ID : S_HDMV/PGS
  150. Codec ID/Info : Picture based subtitle format used on BDs/HD-DVDs
  151. Duration : 1 h 26 min
  152. Bit rate : 48.1 kb/s
  153. Count of elements : 2626
  154. Stream size : 29.9 MiB (0%)
  155. Title : Latin American
  156. Language : Spanish
  157. Default : No
  158. Forced : No
  159.  
  160. Text #5
  161. ID : 9
  162. Format : PGS
  163. Codec ID : S_HDMV/PGS
  164. Codec ID/Info : Picture based subtitle format used on BDs/HD-DVDs
  165. Duration : 1 h 28 min
  166. Bit rate : 66.8 kb/s
  167. Count of elements : 2722
  168. Stream size : 42.0 MiB (0%)
  169. Title : Commentary by film professor Jeanine Basinger and composer David Raksin
  170. Language : English
  171. Default : No
  172. Forced : No
  173.  
  174. Text #6
  175. ID : 10
  176. Format : PGS
  177. Codec ID : S_HDMV/PGS
  178. Codec ID/Info : Picture based subtitle format used on BDs/HD-DVDs
  179. Duration : 1 h 28 min
  180. Bit rate : 58.5 kb/s
  181. Count of elements : 2609
  182. Stream size : 36.8 MiB (0%)
  183. Title : Commentary by film professor Jeanine Basinger and composer David Raksin
  184. Language : Dutch
  185. Default : No
  186. Forced : No
  187.  
  188. Text #7
  189. ID : 11
  190. Format : PGS
  191. Codec ID : S_HDMV/PGS
  192. Codec ID/Info : Picture based subtitle format used on BDs/HD-DVDs
  193. Duration : 1 h 28 min
  194. Bit rate : 57.7 kb/s
  195. Count of elements : 2630
  196. Stream size : 36.3 MiB (0%)
  197. Title : Commentary by film professor Jeanine Basinger and composer David Raksin
  198. Language : French
  199. Default : No
  200. Forced : No
  201.  
  202. Text #8
  203. ID : 12
  204. Format : PGS
  205. Codec ID : S_HDMV/PGS
  206. Codec ID/Info : Picture based subtitle format used on BDs/HD-DVDs
  207. Duration : 1 h 28 min
  208. Bit rate : 72.4 kb/s
  209. Count of elements : 2883
  210. Stream size : 45.6 MiB (0%)
  211. Title : Commentary by film historian Rudy Behlmer
  212. Language : English
  213. Default : No
  214. Forced : No
  215.  
  216. Text #9
  217. ID : 13
  218. Format : PGS
  219. Codec ID : S_HDMV/PGS
  220. Codec ID/Info : Picture based subtitle format used on BDs/HD-DVDs
  221. Duration : 1 h 28 min
  222. Bit rate : 61.8 kb/s
  223. Count of elements : 2699
  224. Stream size : 38.9 MiB (0%)
  225. Title : Commentary by film historian Rudy Behlmer
  226. Language : Dutch
  227. Default : No
  228. Forced : No
  229.  
  230. Text #10
  231. ID : 14
  232. Format : PGS
  233. Codec ID : S_HDMV/PGS
  234. Codec ID/Info : Picture based subtitle format used on BDs/HD-DVDs
  235. Duration : 1 h 28 min
  236. Bit rate : 62.6 kb/s
  237. Count of elements : 2801
  238. Stream size : 39.4 MiB (0%)
  239. Title : Commentary by film historian Rudy Behlmer
  240. Language : French
  241. Default : No
  242. Forced : No
  243.  
  244. Menu
  245. 00:00:00.000 : en:Main Titles
  246. 00:01:06.900 : en:Interrogation
  247. 00:06:43.236 : en:A Question of Motive
  248. 00:11:08.084 : en:The Apartment
  249. 00:15:17.542 : en:Initial Encounter
  250. 00:21:33.918 : en:Character Assassination
  251. 00:25:01.333 : en:A Job Interview
  252. 00:28:00.304 : en:Background Check
  253. 00:30:33.832 : en:Confrontation
  254. 00:33:40.018 : en:Decision Time
  255. 00:35:34.549 : en:Cheap Scotch
  256. 00:41:23.898 : en:Falling in Love
  257. 00:47:39.857 : en:Surprise Entrance
  258. 00:53:48.809 : en:Shelby's Tale
  259. 01:01:02.284 : en:Too Much
  260. 01:06:26.065 : en:Celebration
  261. 01:09:41.511 : en:Prime Suspect
  262. 01:11:59.982 : en:Grilled
  263. 01:15:47.376 : en:Like Clockwork
  264. 01:23:52.569 : en:A Second Chance
RAW Paste Data