TolstiyMob

Katanagatari Vol.2 Zanto Namakura

Oct 16th, 2011
98
Never
Not a member of Pastebin yet? Sign Up, it unlocks many cool features!
  1. Disc Title: vol.2
  2. Disc Size: 16 910 600 119 bytes
  3. Protection: AACS
  4. BD-Java: No
  5. BDInfo: 0.5.6
  6.  
  7. Notes:
  8.  
  9. BDINFO HOME:
  10. Cinema Squid
  11. http://www.cinemasquid.com/blu-ray/tools/bdinfo
  12.  
  13. INCLUDES FORUMS REPORT FOR:
  14. AVS Forum Blu-ray Audio and Video Specifications Thread
  15. http://www.avsforum.com/avs-vb/showthread.php?t=1155731
  16.  
  17. ********************
  18. PLAYLIST: 00000.MPLS
  19. ********************
  20.  
  21. <--- BEGIN FORUMS PASTE --->
  22. [code]
  23. Total Video
  24. Title Codec Length Movie Size Disc Size Bitrate Bitrate Main Audio Track Secondary Audio Track
  25. ----- ------ ------- -------------- -------------- ------- ------- ------------------ ---------------------
  26. 00000.MPLS AVC 0:49:50 15 766 069 248 16 910 600 119 42,18 38,00 LPCM 2.0 2304Kbps (48kHz/24-bit)
  27. [/code]
  28.  
  29. [code]
  30.  
  31. DISC INFO:
  32.  
  33. Disc Title: vol.2
  34. Disc Size: 16 910 600 119 bytes
  35. Protection: AACS
  36. BD-Java: No
  37. BDInfo: 0.5.6
  38.  
  39. PLAYLIST REPORT:
  40.  
  41. Name: 00000.MPLS
  42. Length: 0:49:50 (h:m:s)
  43. Size: 15 766 069 248 bytes
  44. Total Bitrate: 42,18 Mbps
  45.  
  46. VIDEO:
  47.  
  48. Codec Bitrate Description
  49. ----- ------- -----------
  50. MPEG-4 AVC Video 38001 kbps 1080p / 23,976 fps / 16:9 / High Profile 4.1
  51.  
  52. AUDIO:
  53.  
  54. Codec Language Bitrate Description
  55. ----- -------- ------- -----------
  56. LPCM Audio Japanese 2304 kbps 2.0 / 48 kHz / 2304 kbps / 24-bit
  57.  
  58. FILES:
  59.  
  60. Name Time In Length Size Total Bitrate
  61. ---- ------- ------ ---- -------------
  62. 00000.M2TS 0:00:00.000 0:49:50.028 15 766 069 248 42 183
  63.  
  64. CHAPTERS:
  65.  
  66. Number Time In Length Avg Video Rate Max 1-Sec Rate Max 1-Sec Time Max 5-Sec Rate Max 5-Sec Time Max 10Sec Rate Max 10Sec Time Avg Frame Size Max Frame Size Max Frame Time
  67. ------ ------- ------ -------------- -------------- -------------- -------------- -------------- -------------- -------------- -------------- -------------- --------------
  68. 1 0:00:00.000 0:04:19.008 38 535 kbps 43 588 kbps 00:02:21.182 40 429 kbps 00:00:44.252 40 076 kbps 00:03:03.349 200 874 bytes 640 803 bytes 00:01:46.147
  69. 2 0:04:19.008 0:01:30.006 38 294 kbps 45 210 kbps 00:05:18.026 40 538 kbps 00:04:23.471 39 991 kbps 00:04:59.966 199 650 bytes 607 915 bytes 00:05:44.802
  70. 3 0:05:49.015 0:13:58.045 38 621 kbps 44 018 kbps 00:14:46.010 40 304 kbps 00:05:59.901 39 987 kbps 00:05:54.896 201 351 bytes 641 038 bytes 00:05:59.942
  71. 4 0:19:47.060 0:04:55.962 37 672 kbps 44 583 kbps 00:21:46.304 40 549 kbps 00:21:42.426 39 954 kbps 00:20:05.871 196 402 bytes 500 002 bytes 00:20:47.037
  72. 5 0:24:43.023 0:11:38.989 38 118 kbps 51 583 kbps 00:34:37.325 40 175 kbps 00:33:55.742 39 961 kbps 00:33:50.737 198 728 bytes 637 571 bytes 00:34:40.870
  73. 6 0:36:22.013 0:11:19.011 37 481 kbps 42 552 kbps 00:44:08.687 40 270 kbps 00:44:17.738 39 924 kbps 00:44:17.738 195 408 bytes 639 789 bytes 00:44:10.272
  74. 7 0:47:41.024 0:01:29.964 39 462 kbps 41 136 kbps 00:49:09.029 39 835 kbps 00:48:10.304 39 702 kbps 00:48:05.757 205 736 bytes 569 268 bytes 00:48:08.051
  75. 8 0:49:10.989 0:00:37.203 27 787 kbps 42 216 kbps 00:49:13.241 39 118 kbps 00:49:19.915 38 244 kbps 00:49:13.450 144 867 bytes 565 579 bytes 00:49:31.468
  76. 9 0:49:48.193 0:00:01.835 2 001 kbps 3 644 kbps 00:49:48.986 0 kbps 00:00:00.000 0 kbps 00:00:00.000 10 673 bytes 208 334 bytes 00:49:49.987
  77.  
  78. STREAM DIAGNOSTICS:
  79.  
  80. File PID Type Codec Language Seconds Bitrate Bytes Packets
  81. ---- --- ---- ----- -------- -------------- -------------- ------------- -----
  82. 00000.M2TS 4113 (0x1011) 0x1B AVC 2989,862 38 003 14 203 053 459 77 232 328
  83. 00000.M2TS 4352 (0x1100) 0x80 LPCM jpn (Japanese) 2989,862 2 310 863 231 864 4 782 448
  84.  
  85. [/code]
  86. <---- END FORUMS PASTE ---->
  87.  
  88. QUICK SUMMARY:
  89.  
  90. Disc Title: vol.2
  91. Disc Size: 16 910 600 119 bytes
  92. Protection: AACS
  93. BD-Java: No
  94. Playlist: 00000.MPLS
  95. Size: 15 766 069 248 bytes
  96. Length: 0:49:50
  97. Total Bitrate: 42,18 Mbps
  98. Video: MPEG-4 AVC Video / 38001 kbps / 1080p / 23,976 fps / 16:9 / High Profile 4.1
  99. Audio: Japanese / LPCM Audio / 2.0 / 48 kHz / 2304 kbps / 24-bit
  100.  
  101. ********************
  102. PLAYLIST: 00002.MPLS
  103. ********************
  104.  
  105. <--- BEGIN FORUMS PASTE --->
  106. [code]
  107. Total Video
  108. Title Codec Length Movie Size Disc Size Bitrate Bitrate Main Audio Track Secondary Audio Track
  109. ----- ------ ------- -------------- -------------- ------- ------- ------------------ ---------------------
  110. 00002.MPLS AVC 0:00:38 66 680 832 16 910 600 119 14,02 11,60 LPCM 2.0 1536Kbps (48kHz/16-bit)
  111. [/code]
  112.  
  113. [code]
  114.  
  115. DISC INFO:
  116.  
  117. Disc Title: vol.2
  118. Disc Size: 16 910 600 119 bytes
  119. Protection: AACS
  120. BD-Java: No
  121. BDInfo: 0.5.6
  122.  
  123. PLAYLIST REPORT:
  124.  
  125. Name: 00002.MPLS
  126. Length: 0:00:38 (h:m:s)
  127. Size: 66 680 832 bytes
  128. Total Bitrate: 14,02 Mbps
  129.  
  130. VIDEO:
  131.  
  132. Codec Bitrate Description
  133. ----- ------- -----------
  134. MPEG-4 AVC Video 11601 kbps 1080i / 29,970 fps / 16:9 / High Profile 4.1
  135.  
  136. AUDIO:
  137.  
  138. Codec Language Bitrate Description
  139. ----- -------- ------- -----------
  140. LPCM Audio Japanese 1536 kbps 2.0 / 48 kHz / 1536 kbps / 16-bit
  141.  
  142. FILES:
  143.  
  144. Name Time In Length Size Total Bitrate
  145. ---- ------- ------ ---- -------------
  146. 00003.M2TS 0:00:00.000 0:00:22.021 23 218 176 8 435
  147. 00002.M2TS 0:00:22.021 0:00:16.015 43 462 656 21 710
  148.  
  149. CHAPTERS:
  150.  
  151. Number Time In Length Avg Video Rate Max 1-Sec Rate Max 1-Sec Time Max 5-Sec Rate Max 5-Sec Time Max 10Sec Rate Max 10Sec Time Avg Frame Size Max Frame Size Max Frame Time
  152. ------ ------- ------ -------------- -------------- -------------- -------------- -------------- -------------- -------------- -------------- -------------- --------------
  153. 1 0:00:00.000 0:00:38.037 11 601 kbps 46 121 kbps 00:00:31.564 32 526 kbps 00:00:28.495 27 952 kbps 00:00:23.523 48 385 bytes 489 494 bytes 00:00:03.002
  154.  
  155. STREAM DIAGNOSTICS:
  156.  
  157. File PID Type Codec Language Seconds Bitrate Bytes Packets
  158. ---- --- ---- ----- -------- -------------- -------------- ------------- -----
  159. 00003.M2TS 4113 (0x1011) 0x1B AVC 21,889 6 281 17 184 086 93 744
  160. 00003.M2TS 4352 (0x1100) 0x80 LPCM jpn (Japanese) 21,889 1 552 4 246 420 26 430
  161. 00002.M2TS 4113 (0x1011) 0x1B AVC 15,883 19 128 37 974 761 206 633
  162. 00002.M2TS 4352 (0x1100) 0x80 LPCM jpn (Japanese) 15,883 1 555 3 087 692 19 218
  163.  
  164. [/code]
  165. <---- END FORUMS PASTE ---->
  166.  
  167. QUICK SUMMARY:
  168.  
  169. Disc Title: vol.2
  170. Disc Size: 16 910 600 119 bytes
  171. Protection: AACS
  172. BD-Java: No
  173. Playlist: 00002.MPLS
  174. Size: 66 680 832 bytes
  175. Length: 0:00:38
  176. Total Bitrate: 14,02 Mbps
  177. Video: MPEG-4 AVC Video / 11601 kbps / 1080i / 29,970 fps / 16:9 / High Profile 4.1
  178. Audio: Japanese / LPCM Audio / 2.0 / 48 kHz / 1536 kbps / 16-bit
  179.  
RAW Paste Data