G2A Many GEOs
SHARE
TWEET

Spectre_REMUX

iMN0 Jun 19th, 2017 177 Never
Not a member of Pastebin yet? Sign Up, it unlocks many cool features!
  1. General
  2. Unique ID                                : 173133838233372874198186426268836121343 (0x82405D45A6922D498786FDBE4C5F4AFF)
  3. Format                                   : Matroska
  4. Format version                           : Version 4 / Version 2
  5. File size                                : 29.7 GiB
  6. Duration                                 : 2 h 28 min
  7. Overall bit rate mode                    : Variable
  8. Overall bit rate                         : 28.7 Mb/s
  9. Encoded date                             : UTC 2017-06-18 14:10:18
  10. Writing application                      : mkvmerge v10.0.0 ('To Drown In You') 64bit
  11. Writing library                          : libebml v1.3.4 + libmatroska v1.4.5
  12.  
  13. Video
  14. ID                                       : 1
  15. Format                                   : AVC
  16. Format/Info                              : Advanced Video Codec
  17. Format profile                           : High@L4.1
  18. Format settings, CABAC                   : Yes
  19. Format settings, ReFrames                : 4 frames
  20. Codec ID                                 : V_MPEG4/ISO/AVC
  21. Duration                                 : 2 h 28 min
  22. Bit rate mode                            : Variable
  23. Bit rate                                 : 23.9 Mb/s
  24. Maximum bit rate                         : 31.8 Mb/s
  25. Width                                    : 1 920 pixels
  26. Height                                   : 1 080 pixels
  27. Display aspect ratio                     : 16:9
  28. Frame rate mode                          : Constant
  29. Frame rate                               : 23.976 (24000/1001) FPS
  30. Color space                              : YUV
  31. Chroma subsampling                       : 4:2:0
  32. Bit depth                                : 8 bits
  33. Scan type                                : Progressive
  34. Bits/(Pixel*Frame)                       : 0.482
  35. Stream size                              : 24.8 GiB (83%)
  36. Default                                  : Yes
  37. Forced                                   : No
  38.  
  39. Audio
  40. ID                                       : 2
  41. Format                                   : DTS
  42. Format/Info                              : Digital Theater Systems
  43. Format profile                           : MA / Core
  44. Mode                                     : 16
  45. Format settings, Endianness              : Big
  46. Codec ID                                 : A_DTS
  47. Duration                                 : 2 h 28 min
  48. Bit rate mode                            : Variable / Constant
  49. Bit rate                                 : 4 742 kb/s / 1 509 kb/s
  50. Channel(s)                               : 8 channels / 6 channels
  51. Channel positions                        : Front: L C R, Side: L R, Back: L R, LFE / Front: L C R, Side: L R, LFE
  52. Sampling rate                            : 48.0 kHz
  53. Frame rate                               : 93.750 FPS (512 spf)
  54. Bit depth                                : 24 bits
  55. Compression mode                         : Lossless / Lossy
  56. Stream size                              : 4.91 GiB (17%)
  57. Language                                 : English
  58. Default                                  : No
  59. Forced                                   : No
  60.  
  61. Text
  62. ID                                       : 3
  63. Format                                   : UTF-8
  64. Codec ID                                 : S_TEXT/UTF8
  65. Codec ID/Info                            : UTF-8 Plain Text
  66. Duration                                 : 1 h 16 min
  67. Bit rate                                 : 1 b/s
  68. Count of elements                        : 39
  69. Stream size                              : 1 023 Bytes (0%)
  70. Title                                    : English-Forced
  71. Language                                 : English
  72. Default                                  : No
  73. Forced                                   : No
  74.  
  75. Menu
  76. 00:00:00.000                             : en:Chapter 1
  77. 00:06:09.118                             : en:Chapter 2
  78. 00:13:04.784                             : en:Chapter 3
  79. 00:18:58.470                             : en:Chapter 4
  80. 00:24:46.776                             : en:Chapter 5
  81. 00:28:04.057                             : en:Chapter 6
  82. 00:32:15.558                             : en:Chapter 7
  83. 00:36:58.591                             : en:Chapter 8
  84. 00:41:56.639                             : en:Chapter 9
  85. 00:46:13.145                             : en:Chapter 10
  86. 00:50:51.923                             : en:Chapter 11
  87. 00:53:43.220                             : en:Chapter 12
  88. 01:00:21.367                             : en:Chapter 13
  89. 01:06:48.212                             : en:Chapter 14
  90. 01:10:58.963                             : en:Chapter 15
  91. 01:15:14.092                             : en:Chapter 16
  92. 01:18:55.647                             : en:Chapter 17
  93. 01:26:11.040                             : en:Chapter 18
  94. 01:29:39.999                             : en:Chapter 19
  95. 01:36:43.547                             : en:Chapter 20
  96. 01:41:44.389                             : en:Chapter 21
  97. 01:49:06.414                             : en:Chapter 22
  98. 01:55:52.820                             : en:Chapter 23
  99. 01:59:39.213                             : en:Chapter 24
  100. 02:04:19.743                             : en:Chapter 25
  101. 02:09:28.510                             : en:Chapter 26
  102. 02:14:05.662                             : en:Chapter 27
  103. 02:19:42.374                             : en:Chapter 28
RAW Paste Data
Ledger Nano X - The secure hardware wallet
We use cookies for various purposes including analytics. By continuing to use Pastebin, you agree to our use of cookies as described in the Cookies Policy. OK, I Understand
Top