Guest User

[AnimeKaizoku] Assassination Classroom S2E01 rokey

a guest
Dec 11th, 2017
256
Never
Not a member of Pastebin yet? Sign Up, it unlocks many cool features!
  1. General
  2. Unique ID : 238304666563761989726666699666211947221 (0xB347CF2FBDF9A7C4B411333A7F2742D5)
  3. Complete name : [AnimeKaizoku] Assassination Classroom S2 Ep.01 (Dual Audio) [BD 1080p x265]_Rokey.mkv
  4. Format : Matroska
  5. Format version : Version 4 / Version 2
  6. File size : 338 MiB
  7. Duration : 23 min 16 s
  8. Overall bit rate mode : Variable
  9. Overall bit rate : 2 031 kb/s
  10. Encoded date : UTC 2017-06-11 17:51:05
  11. Writing application : mkvmerge v8.7.0 ('All of the above') 64bit
  12. Writing library : libebml v1.3.3 + libmatroska v1.4.4
  13. Cover : Yes
  14. Attachments : cover.jpg / CABIN-BOLD.TTF / CABIN-BOLDITALIC.TTF / ERASERDUST.TTF / EXTREME-REGULAR.TTF / FOT-CEZANNEPROEB.TTF / FOT-MANYOKOINSTDB.TTF / FOTRODINPROEB.TTF / HANNAHANDWRITING.TTF / HEISEIKAKUGOSTD-NAKAIMO-W7.TTF / HEISEIMARUGOTHICSTDW4.TTF / HUMMINGSTD-ACCEL-B.TTF / KOZUKAMINCHOPR6N-H.TTF / LAURENCBROWN.TTF / SNSANAFONKAKUP.TTF / TATI01.TTF / A-OTFFOLKPROM.TTF / BRUSHSTROKE-REGULAR.TTF
  15.  
  16. Video
  17. ID : 1
  18. Format : HEVC
  19. Format/Info : High Efficiency Video Coding
  20. Format profile : Main@L5@Main
  21. Codec ID : V_MPEGH/ISO/HEVC
  22. Duration : 23 min 14 s
  23. Bit rate : 1 238 kb/s
  24. Width : 1 920 pixels
  25. Height : 1 088 pixels
  26. Display aspect ratio : 16:9
  27. Frame rate mode : Constant
  28. Frame rate : 23.976 (24000/1001) FPS
  29. Color space : YUV
  30. Chroma subsampling : 4:2:0
  31. Bit depth : 8 bits
  32. Bits/(Pixel*Frame) : 0.025
  33. Stream size : 206 MiB (61%)
  34. Writing library : x265 2.1+2-c0d91c2b4048:[Windows][GCC 6.2.0][64 bit] 8bit+10bit+12bit
  35. Encoding settings : wpp / ctu=64 / min-cu-size=8 / max-tu-size=32 / tu-intra-depth=2 / tu-inter-depth=2 / me=3 / subme=3 / merange=57 / no-rect / no-amp / max-merge=3 / temporal-mvp / early-skip / rskip / rdpenalty=0 / no-tskip / no-tskip-fast / strong-intra-smoothing / no-lossless / no-cu-lossless / no-constrained-intra / no-fast-intra / open-gop / temporal-layers / interlace=0 / keyint=360 / min-keyint=1 / scenecut=55 / rc-lookahead=90 / lookahead-slices=4 / bframes=12 / bframe-bias=0 / b-adapt=2 / ref=6 / limit-refs=2 / limit-modes / weightp / weightb / aq-mode=3 / qg-size=32 / aq-strength=0.60 / cbqpoffs=0 / crqpoffs=0 / rd=5 / psy-rd=0.60 / rdoq-level=2 / psy-rdoq=0.00 / log2-max-poc-lsb=8 / rd-refine / signhide / deblock=0:0 / sao / no-sao-non-deblock / b-pyramid / cutree / no-intra-refresh / rc=crf / crf=22.0 / qcomp=0.60 / qpmin=0 / qpmax=69 / qpstep=4 / ipratio=1.40 / pbratio=1.30
  36. Default : Yes
  37. Forced : No
  38.  
  39. Audio #1
  40. ID : 2
  41. Format : Vorbis
  42. Format settings, Floor : 1
  43. Codec ID : A_VORBIS
  44. Duration : 22 min 55 s
  45. Bit rate mode : Variable
  46. Bit rate : 96.0 kb/s
  47. Channel(s) : 2 channels
  48. Sampling rate : 44.1 kHz
  49. Frame rate : 55.811 FPS (790 SPF)
  50. Compression mode : Lossy
  51. Delay relative to video : -1 s 836 ms
  52. Stream size : 13.5 MiB (4%)
  53. Writing library : aoTuV 20110424 (UTC 2011-04-24)
  54. Language : English
  55. Default : Yes
  56. Forced : No
  57.  
  58. Audio #2
  59. ID : 3
  60. Format : FLAC
  61. Format/Info : Free Lossless Audio Codec
  62. Codec ID : A_FLAC
  63. Duration : 23 min 16 s
  64. Bit rate mode : Variable
  65. Bit rate : 670 kb/s
  66. Channel(s) : 2 channels
  67. Channel positions : Front: L R
  68. Sampling rate : 48.0 kHz
  69. Frame rate : 11.719 FPS (4096 SPF)
  70. Bit depth : 16 bits
  71. Delay relative to video : -1 s 812 ms
  72. Stream size : 112 MiB (33%)
  73. Title : FLAC
  74. Language : Japanese
  75. Default : No
  76. Forced : No
  77.  
  78. Text #1
  79. ID : 4
  80. Format : ASS
  81. Codec ID : S_TEXT/ASS
  82. Codec ID/Info : Advanced Sub Station Alpha
  83. Duration : 22 min 21 s
  84. Bit rate : 9 939 b/s
  85. Count of elements : 15026
  86. Compression mode : Lossless
  87. Stream size : 1.59 MiB (0%)
  88. Title : [FFF] Signs
  89. Language : English
  90. Default : Yes
  91. Forced : No
  92.  
  93. Text #2
  94. ID : 5
  95. Format : ASS
  96. Codec ID : S_TEXT/ASS
  97. Codec ID/Info : Advanced Sub Station Alpha
  98. Duration : 22 min 42 s
  99. Bit rate : 9 907 b/s
  100. Count of elements : 15339
  101. Compression mode : Lossless
  102. Stream size : 1.61 MiB (0%)
  103. Title : [FFF] Full Subtitles
  104. Language : Japanese
  105. Default : No
  106. Forced : No
  107.  
  108. Menu #1
  109. 00:00:00.000 : :Chapter 01
  110. 00:00:40.041 : :Chapter 02
  111. 00:02:10.006 : :Chapter 03
  112. 00:15:30.931 : :Chapter 04
  113. 00:21:25.035 : :Chapter 05
  114. 00:22:55.000 : :Chapter 06
  115. 00:23:10.015 : :Chapter 07
  116.  
  117. Menu #2
  118. 00:00:00.000 : en:Prologue
  119. 00:00:40.040 : en:Opening
  120. 00:02:10.004 : en:Part A
  121. 00:15:26.883 : en:Eyecatch
  122. 00:15:30.972 : en:Part B
  123. 00:21:25.034 : en:Ending
RAW Paste Data