Guest User

Mediainfo full example

a guest
Nov 27th, 2020
70
79 days
Not a member of Pastebin yet? Sign Up, it unlocks many cool features!
  1. General
  2. Count : 331
  3. Count of stream of this kind : 1
  4. Kind of stream : General
  5. Kind of stream : General
  6. Stream identifier : 0
  7. Unique ID : 119309994897818826562412235014109439107
  8. Unique ID : 119309994897818826562412235014109439107 (0x59C244E93B6C622C49AE14294FC0A483)
  9. Count of video streams : 1
  10. Count of audio streams : 2
  11. Count of text streams : 4
  12. Count of menu streams : 1
  13. Video_Format_List : VC-1
  14. Video_Format_WithHint_List : VC-1 (Microsoft)
  15. Codecs Video : VC-1
  16. Audio_Format_List : DTS XLL / AC-3
  17. Audio_Format_WithHint_List : DTS XLL / AC-3
  18. Audio codecs : DTS XLL / AC-3
  19. Audio_Language_List : English / English
  20. Text_Format_List : PGS / PGS / PGS / PGS
  21. Text_Format_WithHint_List : PGS / PGS / PGS / PGS
  22. Text codecs : PGS / PGS / PGS / PGS
  23. Text_Language_List : English / French / Spanish / Portuguese
  24. Complete name : <path>\King Kong (1933).mkv
  25. Folder name : <path>
  26. File name extension : King Kong (1933).mkv
  27. File name : King Kong (1933)
  28. File extension : mkv
  29. Format : Matroska
  30. Format : Matroska
  31. Format/Url : https://matroska.org/downloads/windows.html
  32. Format/Extensions usually used : mkv mk3d mka mks
  33. Commercial name : Matroska
  34. Format version : Version 4
  35. File size : 23079948454
  36. File size : 21.5 GiB
  37. File size : 21 GiB
  38. File size : 21 GiB
  39. File size : 21.5 GiB
  40. File size : 21.49 GiB
  41. Duration : 6265312
  42. Duration : 1 h 44 min
  43. Duration : 1 h 44 min 25 s 312 ms
  44. Duration : 1 h 44 min
  45. Duration : 01:44:25.312
  46. Duration : 01:44:26;21
  47. Duration : 01:44:25.312 (01:44:26;21)
  48. Overall bit rate mode : VBR
  49. Overall bit rate mode : Variable
  50. Overall bit rate : 29470135
  51. Overall bit rate : 29.5 Mb/s
  52. Frame rate : 23.976
  53. Frame rate : 23.976 FPS
  54. Frame count : 150217
  55. IsStreamable : Yes
  56. Title : King Kong (1933)
  57. Movie name : King Kong (1933)
  58. Encoded date : UTC 2020-11-23 08:34:51
  59. File creation date : UTC 2018-11-11 14:00:00.000
  60. File creation date (local) : 2018-11-11 11:00:00.000
  61. File last modification date : UTC 2018-11-11 14:00:00.000
  62. File last modification date (local) : 2018-11-11 11:00:00.000
  63. Writing application : mkvmerge v51.0.0 ('I Wish') 64-bit
  64. Writing application : mkvmerge v51.0.0 ('I Wish') 64-bit
  65. Writing library : libebml v1.4.0 + libmatroska v1.6.2
  66. Writing library : libebml v1.4.0 + libmatroska v1.6.2
  67.  
  68. Video
  69. Count : 378
  70. Count of stream of this kind : 1
  71. Kind of stream : Video
  72. Kind of stream : Video
  73. Stream identifier : 0
  74. StreamOrder : 0
  75. ID : 1
  76. ID : 1
  77. ID in the original source medium : 4113
  78. ID in the original source medium : 4113 (0x1011)
  79. Unique ID : 17282888763568421804
  80. Format : VC-1
  81. Format : VC-1
  82. Commercial name : VC-1
  83. Format profile : Advanced@L3
  84. Internet media type : video/vc1
  85. Codec ID : V_MS/VFW/FOURCC / WVC1
  86. Codec ID/Hint : Microsoft
  87. Duration : 6265259.000000
  88. Duration : 1 h 44 min
  89. Duration : 1 h 44 min 25 s 259 ms
  90. Duration : 1 h 44 min
  91. Duration : 01:44:25.259
  92. Duration : 01:44:26;21
  93. Duration : 01:44:25.259 (01:44:26;21)
  94. Bit rate : 28170257
  95. Bit rate : 28.2 Mb/s
  96. Width : 1920
  97. Width : 1 920 pixels
  98. Height : 1080
  99. Height : 1 080 pixels
  100. Sampled_Width : 1920
  101. Sampled_Height : 1080
  102. Pixel aspect ratio : 1.000
  103. Display aspect ratio : 1.778
  104. Display aspect ratio : 16:9
  105. Frame rate mode : CFR
  106. Frame rate mode : Constant
  107. Frame rate : 23.976
  108. Frame rate : 23.976 (24000/1001) FPS
  109. FrameRate_Num : 24000
  110. FrameRate_Den : 1001
  111. Frame count : 150217
  112. Color space : YUV
  113. Chroma subsampling : 4:2:0
  114. Chroma subsampling : 4:2:0
  115. Bit depth : 8
  116. Bit depth : 8 bits
  117. Scan type : Progressive
  118. Scan type : Progressive
  119. Compression mode : Lossy
  120. Compression mode : Lossy
  121. Bits/(Pixel*Frame) : 0.567
  122. Delay : 0
  123. Delay : 00:00:00.000
  124. Delay, origin : Container
  125. Delay, origin : Container
  126. Stream size : 22061744856
  127. Stream size : 20.5 GiB (96%)
  128. Stream size : 21 GiB
  129. Stream size : 21 GiB
  130. Stream size : 20.5 GiB
  131. Stream size : 20.55 GiB
  132. Stream size : 20.5 GiB (96%)
  133. Proportion of this stream : 0.95588
  134. Default : Yes
  135. Default : Yes
  136. Forced : No
  137. Forced : No
  138. Buffer size : 3749952
  139. Original source medium : Blu-ray
  140.  
  141. Audio #1
  142. Count : 281
  143. Count of stream of this kind : 2
  144. Kind of stream : Audio
  145. Kind of stream : Audio
  146. Stream identifier : 0
  147. Stream identifier : 1
  148. StreamOrder : 1
  149. ID : 2
  150. ID : 2
  151. ID in the original source medium : 4352
  152. ID in the original source medium : 4352 (0x1100)
  153. Unique ID : 14415425040284620372
  154. Format : DTS
  155. Format : DTS XLL
  156. Format/Info : Digital Theater Systems
  157. Format/Url : https://en.wikipedia.org/wiki/DTS_(sound_system)
  158. Commercial name : DTS-HD Master Audio
  159. Commercial name : DTS-HD Master Audio
  160. Mode : 16
  161. Format settings, Endianness : Big
  162. Format_AdditionalFeatures : XLL
  163. Codec ID : A_DTS
  164. Duration : 6265302.000000
  165. Duration : 1 h 44 min
  166. Duration : 1 h 44 min 25 s 302 ms
  167. Duration : 1 h 44 min
  168. Duration : 01:44:25.302
  169. Duration : 01:44:08:60
  170. Duration : 01:44:25.302 (01:44:08:60)
  171. Bit rate mode : VBR
  172. Bit rate mode : Variable
  173. Bit rate : 1069146
  174. Bit rate : 1 069 kb/s
  175. Channel(s) : 1
  176. Channel(s) : 1 channel
  177. Channel positions : Front: C
  178. Channel positions : 1/0/0
  179. Channel layout : C
  180. Samples per frame : 512
  181. Sampling rate : 48000
  182. Sampling rate : 48.0 kHz
  183. Samples count : 300734496
  184. Frame rate : 93.750
  185. Frame rate : 93.750 FPS (512 SPF)
  186. Frame count : 587372
  187. Bit depth : 24
  188. Bit depth : 24 bits
  189. Compression mode : Lossless
  190. Compression mode : Lossless
  191. Delay : 0
  192. Delay : 00:00:00.000
  193. Delay, origin : Container
  194. Delay, origin : Container
  195. Delay relative to video : 0
  196. Delay relative to video : 00:00:00.000
  197. Stream size : 837315636
  198. Stream size : 799 MiB (4%)
  199. Stream size : 799 MiB
  200. Stream size : 799 MiB
  201. Stream size : 799 MiB
  202. Stream size : 798.5 MiB
  203. Stream size : 799 MiB (4%)
  204. Proportion of this stream : 0.03628
  205. Language : en
  206. Language : English
  207. Language : English
  208. Language : en
  209. Language : eng
  210. Language : en
  211. Default : Yes
  212. Default : Yes
  213. Forced : No
  214. Forced : No
  215. Original source medium : Blu-ray
  216.  
  217. Audio #2
  218. Count : 302
  219. Count of stream of this kind : 2
  220. Kind of stream : Audio
  221. Kind of stream : Audio
  222. Stream identifier : 1
  223. Stream identifier : 2
  224. StreamOrder : 2
  225. ID : 3
  226. ID : 3
  227. ID in the original source medium : 4355
  228. ID in the original source medium : 4355 (0x1103)
  229. Unique ID : 10030381159043306699
  230. Format : AC-3
  231. Format : AC-3
  232. Format/Info : Audio Coding 3
  233. Format/Url : https://en.wikipedia.org/wiki/AC3
  234. Commercial name : Dolby Digital
  235. Commercial name : Dolby Digital
  236. Format settings, Endianness : Big
  237. Codec ID : A_AC3
  238. Duration : 6265312.000000
  239. Duration : 1 h 44 min
  240. Duration : 1 h 44 min 25 s 312 ms
  241. Duration : 1 h 44 min
  242. Duration : 01:44:25.312
  243. Duration : 01:45:15:26
  244. Duration : 01:44:25.312 (01:45:15:26)
  245. Bit rate mode : CBR
  246. Bit rate mode : Constant
  247. Bit rate : 192000
  248. Bit rate : 192 kb/s
  249. Channel(s) : 1
  250. Channel(s) : 1 channel
  251. Channel positions : Front: C
  252. Channel positions : 1/0/0
  253. Channel layout : C
  254. Samples per frame : 1536
  255. Sampling rate : 48000
  256. Sampling rate : 48.0 kHz
  257. Samples count : 300734976
  258. Frame rate : 31.250
  259. Frame rate : 31.250 FPS (1536 SPF)
  260. Frame count : 195791
  261. Compression mode : Lossy
  262. Compression mode : Lossy
  263. Delay : 0
  264. Delay : 00:00:00.000
  265. Delay, origin : Container
  266. Delay, origin : Container
  267. Delay relative to video : 0
  268. Delay relative to video : 00:00:00.000
  269. Stream size : 150367488
  270. Stream size : 143 MiB (1%)
  271. Stream size : 143 MiB
  272. Stream size : 143 MiB
  273. Stream size : 143 MiB
  274. Stream size : 143.4 MiB
  275. Stream size : 143 MiB (1%)
  276. Proportion of this stream : 0.00652
  277. Title : Commentary by visual effects veterans Ray Harryhausen and Ken Ralston, with interview excerpts of Merian C. Cooper and Fay Wray
  278. Language : en
  279. Language : English
  280. Language : English
  281. Language : en
  282. Language : eng
  283. Language : en
  284. Service kind : CM
  285. Service kind : Complete Main
  286. Default : No
  287. Default : No
  288. Forced : No
  289. Forced : No
  290. Original source medium : Blu-ray
  291. bsid : 6
  292. Dialog Normalization : -27
  293. Dialog Normalization : -27 dB
  294. compr : -0.28
  295. compr : -0.28 dB
  296. acmod : 1
  297. lfeon : 0
  298. dialnorm_Average : -27
  299. dialnorm_Average : -27 dB
  300. dialnorm_Minimum : -27
  301. dialnorm_Minimum : -27 dB
  302. dialnorm_Maximum : -27
  303. dialnorm_Maximum : -27 dB
  304. dialnorm_Count : 751
  305. compr_Average : 1.72
  306. compr_Average : 1.72 dB
  307. compr_Minimum : -0.56
  308. compr_Minimum : -0.56 dB
  309. compr_Maximum : 4.22
  310. compr_Maximum : 4.22 dB
  311. compr_Count : 661
  312.  
  313. Text #1
  314. Count : 239
  315. Count of stream of this kind : 4
  316. Kind of stream : Text
  317. Kind of stream : Text
  318. Stream identifier : 0
  319. Stream identifier : 1
  320. StreamOrder : 3
  321. ID : 4
  322. ID : 4
  323. ID in the original source medium : 4608
  324. ID in the original source medium : 4608 (0x1200)
  325. Unique ID : 11802766695275365986
  326. Format : PGS
  327. Format : PGS
  328. Commercial name : PGS
  329. Muxing mode : zlib
  330. Codec ID : S_HDMV/PGS
  331. Codec ID/Info : Picture based subtitle format used on BDs/HD-DVDs
  332. Duration : 5875244.000000
  333. Duration : 1 h 37 min
  334. Duration : 1 h 37 min 55 s 244 ms
  335. Duration : 1 h 37 min
  336. Duration : 01:37:55.244
  337. Duration : 01:37:55.244
  338. Bit rate : 26981
  339. Bit rate : 27.0 kb/s
  340. Frame rate : 0.304
  341. Frame rate : 0.304 FPS
  342. Frame count : 1786
  343. Count of elements : 1786
  344. Stream size : 19815238
  345. Stream size : 18.9 MiB (0%)
  346. Stream size : 19 MiB
  347. Stream size : 19 MiB
  348. Stream size : 18.9 MiB
  349. Stream size : 18.90 MiB
  350. Stream size : 18.9 MiB (0%)
  351. Proportion of this stream : 0.00086
  352. Title : SDH
  353. Language : en
  354. Language : English
  355. Language : English
  356. Language : en
  357. Language : eng
  358. Language : en
  359. Default : No
  360. Default : No
  361. Forced : No
  362. Forced : No
  363. Original source medium : Blu-ray
  364.  
  365. Text #2
  366. Count : 239
  367. Count of stream of this kind : 4
  368. Kind of stream : Text
  369. Kind of stream : Text
  370. Stream identifier : 1
  371. Stream identifier : 2
  372. StreamOrder : 4
  373. ID : 5
  374. ID : 5
  375. ID in the original source medium : 4609
  376. ID in the original source medium : 4609 (0x1201)
  377. Unique ID : 11732009802638697129
  378. Format : PGS
  379. Format : PGS
  380. Commercial name : PGS
  381. Muxing mode : zlib
  382. Codec ID : S_HDMV/PGS
  383. Codec ID/Info : Picture based subtitle format used on BDs/HD-DVDs
  384. Duration : 5986272.000000
  385. Duration : 1 h 39 min
  386. Duration : 1 h 39 min 46 s 272 ms
  387. Duration : 1 h 39 min
  388. Duration : 01:39:46.272
  389. Duration : 01:39:46.272
  390. Bit rate : 15899
  391. Bit rate : 15.9 kb/s
  392. Frame rate : 0.237
  393. Frame rate : 0.237 FPS
  394. Frame count : 1418
  395. Count of elements : 1418
  396. Stream size : 11896972
  397. Stream size : 11.3 MiB (0%)
  398. Stream size : 11 MiB
  399. Stream size : 11 MiB
  400. Stream size : 11.3 MiB
  401. Stream size : 11.35 MiB
  402. Stream size : 11.3 MiB (0%)
  403. Proportion of this stream : 0.00052
  404. Language : fr
  405. Language : French
  406. Language : French
  407. Language : fr
  408. Language : fra
  409. Language : fr
  410. Default : No
  411. Default : No
  412. Forced : No
  413. Forced : No
  414. Original source medium : Blu-ray
  415.  
  416. Text #3
  417. Count : 239
  418. Count of stream of this kind : 4
  419. Kind of stream : Text
  420. Kind of stream : Text
  421. Stream identifier : 2
  422. Stream identifier : 3
  423. StreamOrder : 5
  424. ID : 6
  425. ID : 6
  426. ID in the original source medium : 4610
  427. ID in the original source medium : 4610 (0x1202)
  428. Unique ID : 2479445642969230819
  429. Format : PGS
  430. Format : PGS
  431. Commercial name : PGS
  432. Muxing mode : zlib
  433. Codec ID : S_HDMV/PGS
  434. Codec ID/Info : Picture based subtitle format used on BDs/HD-DVDs
  435. Duration : 5914450.000000
  436. Duration : 1 h 38 min
  437. Duration : 1 h 38 min 34 s 450 ms
  438. Duration : 1 h 38 min
  439. Duration : 01:38:34.450
  440. Duration : 01:38:34.450
  441. Bit rate : 19540
  442. Bit rate : 19.5 kb/s
  443. Frame rate : 0.260
  444. Frame rate : 0.260 FPS
  445. Frame count : 1536
  446. Count of elements : 1536
  447. Stream size : 14446308
  448. Stream size : 13.8 MiB (0%)
  449. Stream size : 14 MiB
  450. Stream size : 14 MiB
  451. Stream size : 13.8 MiB
  452. Stream size : 13.78 MiB
  453. Stream size : 13.8 MiB (0%)
  454. Proportion of this stream : 0.00063
  455. Language : es
  456. Language : Spanish
  457. Language : Spanish
  458. Language : es
  459. Language : spa
  460. Language : es
  461. Default : No
  462. Default : No
  463. Forced : No
  464. Forced : No
  465. Original source medium : Blu-ray
  466.  
  467. Text #4
  468. Count : 239
  469. Count of stream of this kind : 4
  470. Kind of stream : Text
  471. Kind of stream : Text
  472. Stream identifier : 3
  473. Stream identifier : 4
  474. StreamOrder : 6
  475. ID : 7
  476. ID : 7
  477. ID in the original source medium : 4611
  478. ID in the original source medium : 4611 (0x1203)
  479. Unique ID : 8595153649198388776
  480. Format : PGS
  481. Format : PGS
  482. Commercial name : PGS
  483. Muxing mode : zlib
  484. Codec ID : S_HDMV/PGS
  485. Codec ID/Info : Picture based subtitle format used on BDs/HD-DVDs
  486. Duration : 5914450.000000
  487. Duration : 1 h 38 min
  488. Duration : 1 h 38 min 34 s 450 ms
  489. Duration : 1 h 38 min
  490. Duration : 01:38:34.450
  491. Duration : 01:38:34.450
  492. Bit rate : 21410
  493. Bit rate : 21.4 kb/s
  494. Frame rate : 0.260
  495. Frame rate : 0.260 FPS
  496. Frame count : 1540
  497. Count of elements : 1540
  498. Stream size : 15828963
  499. Stream size : 15.1 MiB (0%)
  500. Stream size : 15 MiB
  501. Stream size : 15 MiB
  502. Stream size : 15.1 MiB
  503. Stream size : 15.10 MiB
  504. Stream size : 15.1 MiB (0%)
  505. Proportion of this stream : 0.00069
  506. Language : pt
  507. Language : Portuguese
  508. Language : Portuguese
  509. Language : pt
  510. Language : por
  511. Language : pt
  512. Default : No
  513. Default : No
  514. Forced : No
  515. Forced : No
  516. Original source medium : Blu-ray
  517.  
  518. Menu
  519. Count : 129
  520. Count of stream of this kind : 1
  521. Kind of stream : Menu
  522. Kind of stream : Menu
  523. Stream identifier : 0
  524. Chapters_Pos_Begin : 94
  525. Chapters_Pos_End : 129
  526. 00:00:00.000 : en:Chapter 01
  527. 00:04:15.255 : en:Chapter 02
  528. 00:06:07.367 : en:Chapter 03
  529. 00:10:47.063 : en:Chapter 04
  530. 00:14:20.276 : en:Chapter 05
  531. 00:19:47.186 : en:Chapter 06
  532. 00:22:27.346 : en:Chapter 07
  533. 00:24:54.910 : en:Chapter 08
  534. 00:28:44.305 : en:Chapter 09
  535. 00:31:44.402 : en:Chapter 10
  536. 00:36:00.241 : en:Chapter 11
  537. 00:38:09.829 : en:Chapter 12
  538. 00:42:03.938 : en:Chapter 13
  539. 00:46:06.972 : en:Chapter 14
  540. 00:48:11.430 : en:Chapter 15
  541. 00:50:44.082 : en:Chapter 16
  542. 00:53:13.690 : en:Chapter 17
  543. 00:58:11.488 : en:Chapter 18
  544. 01:00:35.840 : en:Chapter 19
  545. 01:05:30.426 : en:Chapter 20
  546. 01:08:42.284 : en:Chapter 21
  547. 01:11:44.800 : en:Chapter 22
  548. 01:14:04.940 : en:Chapter 23
  549. 01:17:10.709 : en:Chapter 24
  550. 01:20:43.547 : en:Chapter 25
  551. 01:23:06.606 : en:Chapter 26
  552. 01:24:13.465 : en:Chapter 27
  553. 01:27:25.323 : en:Chapter 28
  554. 01:30:00.019 : en:Chapter 29
  555. 01:32:35.508 : en:Chapter 30
  556. 01:35:14.542 : en:Chapter 31
  557. 01:37:32.346 : en:Chapter 32
  558. 01:40:13.465 : en:Chapter 33
  559. 01:43:11.727 : en:Chapter 34
  560. 01:43:53.852 : en:Chapter 35
RAW Paste Data