SHARE
TWEET

Untitled

a guest Aug 9th, 2017 454 Never
Not a member of Pastebin yet? Sign Up, it unlocks many cool features!
  1. General
  2. Complete name                            : men.in.black.3.2012.french.1080p.bluray.x264-lost.mkv
  3. Format                                   : Matroska
  4. Format version                           : Version 2
  5. File size                                : 8.73 GiB
  6. Duration                                 : 1 h 45 min
  7. Overall bit rate                         : 11.8 Mb/s
  8. Writing application                      : mkvmerge v4.1.1 ('Bouncin' Back') built on Jul  3 2010 22:54:08
  9. Writing library                          : libebml v1.0.0 + libmatroska v1.0
  10.  
  11. Video
  12. ID                                       : 1
  13. Format                                   : AVC
  14. Format/Info                              : Advanced Video Codec
  15. Format profile                           : High@L4.1
  16. Format settings, CABAC                   : Yes
  17. Format settings, ReFrames                : 4 frames
  18. Codec ID                                 : V_MPEG4/ISO/AVC
  19. Duration                                 : 1 h 45 min
  20. Bit rate                                 : 8 796 kb/s
  21. Width                                    : 1 920 pixels
  22. Height                                   : 1 040 pixels
  23. Display aspect ratio                     : 1.85:1
  24. Frame rate mode                          : Constant
  25. Frame rate                               : 23.976 (24000/1001) FPS
  26. Color space                              : YUV
  27. Chroma subsampling                       : 4:2:0
  28. Bit depth                                : 8 bits
  29. Scan type                                : Progressive
  30. Bits/(Pixel*Frame)                       : 0.184
  31. Stream size                              : 6.33 GiB (72%)
  32. Writing library                          : x264 core 125 r2208 d9d2288
  33. Encoding settings                        : cabac=1 / ref=4 / deblock=1:0:0 / analyse=0x3:0x113 / me=umh / subme=8 / psy=1 / psy_rd=1.00:0.00 / mixed_ref=1 / me_range=16 / chroma_me=1 / trellis=1 / 8x8dct=1 / cqm=0 / deadzone=21,11 / fast_pskip=1 / chroma_qp_offset=-2 / threads=12 / lookahead_threads=2 / sliced_threads=0 / nr=0 / decimate=1 / interlaced=0 / bluray_compat=0 / constrained_intra=0 / bframes=3 / b_pyramid=2 / b_adapt=2 / b_bias=0 / direct=3 / weightb=1 / open_gop=0 / weightp=2 / keyint=240 / keyint_min=24 / scenecut=40 / intra_refresh=0 / rc_lookahead=50 / rc=2pass / mbtree=1 / bitrate=8796 / ratetol=1.0 / qcomp=0.60 / qpmin=0 / qpmax=69 / qpstep=4 / cplxblur=20.0 / qblur=0.5 / ip_ratio=1.40 / aq=1:1.00
  34. Language                                 : English
  35. Default                                  : Yes
  36. Forced                                   : No
  37.  
  38. Audio #1
  39. ID                                       : 2
  40. Format                                   : DTS
  41. Format/Info                              : Digital Theater Systems
  42. Mode                                     : 16
  43. Format settings, Endianness              : Big
  44. Codec ID                                 : A_DTS
  45. Duration                                 : 1 h 45 min
  46. Bit rate mode                            : Constant
  47. Bit rate                                 : 1 509 kb/s
  48. Channel(s)                               : 6 channels
  49. Channel positions                        : Front: L C R, Side: L R, LFE
  50. Sampling rate                            : 48.0 kHz
  51. Frame rate                               : 93.750 FPS (512 spf)
  52. Bit depth                                : 24 bits
  53. Compression mode                         : Lossy
  54. Stream size                              : 1.12 GiB (13%)
  55. Title                                    : French DTS 1509kbps
  56. Language                                 : French
  57. Default                                  : Yes
  58. Forced                                   : No
  59.  
  60. Audio #2
  61. ID                                       : 3
  62. Format                                   : DTS
  63. Format/Info                              : Digital Theater Systems
  64. Mode                                     : 16
  65. Format settings, Endianness              : Big
  66. Codec ID                                 : A_DTS
  67. Duration                                 : 1 h 45 min
  68. Bit rate mode                            : Constant
  69. Bit rate                                 : 1 509 kb/s
  70. Channel(s)                               : 6 channels
  71. Channel positions                        : Front: L C R, Side: L R, LFE
  72. Sampling rate                            : 48.0 kHz
  73. Frame rate                               : 93.750 FPS (512 spf)
  74. Bit depth                                : 24 bits
  75. Compression mode                         : Lossy
  76. Stream size                              : 1.12 GiB (13%)
  77. Title                                    : English DTS 1509kbps
  78. Language                                 : English
  79. Default                                  : Yes
  80. Forced                                   : No
  81.  
  82. Text #1
  83. ID                                       : 4
  84. Format                                   : UTF-8
  85. Codec ID                                 : S_TEXT/UTF8
  86. Codec ID/Info                            : UTF-8 Plain Text
  87. Title                                    : French
  88. Language                                 : French
  89. Default                                  : No
  90. Forced                                   : No
  91.  
  92. Text #2
  93. ID                                       : 5
  94. Format                                   : UTF-8
  95. Codec ID                                 : S_TEXT/UTF8
  96. Codec ID/Info                            : UTF-8 Plain Text
  97. Title                                    : English
  98. Language                                 : English
  99. Default                                  : No
  100. Forced                                   : No
  101.  
  102. Menu
  103. 00:00:00.000                             : en:00:00:00.000
  104. 00:06:09.578                             : en:00:06:09.578
  105. 00:11:27.478                             : en:00:11:27.478
  106. 00:16:58.809                             : en:00:16:58.809
  107. 00:22:36.230                             : en:00:22:36.230
  108. 00:31:24.633                             : en:00:31:24.633
  109. 00:37:36.421                             : en:00:37:36.421
  110. 00:42:43.019                             : en:00:42:43.019
  111. 00:48:55.850                             : en:00:48:55.850
  112. 00:53:58.235                             : en:00:53:58.235
  113. 00:59:27.773                             : en:00:59:27.773
  114. 01:05:52.782                             : en:01:05:52.782
  115. 01:11:56.312                             : en:01:11:56.312
  116. 01:19:50.619                             : en:01:19:50.619
  117. 01:27:57.063                             : en:01:27:57.063
  118. 01:35:30.683
RAW Paste Data
We use cookies for various purposes including analytics. By continuing to use Pastebin, you agree to our use of cookies as described in the Cookies Policy. OK, I Understand
Not a member of Pastebin yet?
Sign Up, it unlocks many cool features!
 
Top