SHARE
TWEET

untitled

loverboy94 Jan 20th, 2019 77 Never
Not a member of Pastebin yet? Sign Up, it unlocks many cool features!
  1. *** General
  2. Complete name                             :  Polar.2019.1080p.HDRip.X264.AC3-EVO.mkv
  3. Format                                    :  Matroska
  4. Format version                            :  Version 4
  5. File size                                 :  3.42 GiB
  6. Duration                                  :  1 h 57 min
  7. Overall bit rate                          :  4 159 kb/s
  8. Movie name                                :  EVO
  9. Encoded date                              :  UTC 2019-01-19 19:34:10
  10. Writing application                       :  mkvmerge v25.0.0 ('Prog Noir') 64-bit
  11. Writing library                           :  libebml v1.3.6 + libmatroska v1.4.9
  12.  
  13. *** Video
  14. ID                                        :  2
  15. Format                                    :  AVC
  16. Format/Info                               :  Advanced Video Codec
  17. Format profile                            :  High@L4.1
  18. Format settings                           :  CABAC / 4 Ref Frames
  19. Format settings, CABAC                    :  Yes
  20. Format settings, ReFrames                 :  4 frames
  21. Codec ID                                  :  V_MPEG4/ISO/AVC
  22. Duration                                  :  1 h 57 min
  23. Bit rate                                  :  3 773 kb/s
  24. Width                                     :  1 920 pixels
  25. Height                                    :  960 pixels
  26. Display aspect ratio                      :  2.000
  27. Frame rate mode                           :  Constant
  28. Frame rate                                :  23.976 (24000/1001) FPS
  29. Color space                               :  YUV
  30. Chroma subsampling                        :  4:2:0
  31. Bit depth                                 :  8 bits
  32. Scan type                                 :  Progressive
  33. Bits/(Pixel*Frame)                        :  0.085
  34. Stream size                               :  3.10 GiB (91%)
  35. Default                                   :  Yes
  36. Forced                                    :  No
  37. Color range                               :  Limited
  38. Color primaries                           :  BT.709
  39. Transfer characteristics                  :  BT.709
  40. Matrix coefficients                       :  BT.709
  41.  
  42. *** Audio
  43. ID                                        :  3
  44. Format                                    :  AC-3
  45. Format/Info                               :  Audio Coding 3
  46. Commercial name                           :  Dolby Digital
  47. Codec ID                                  :  A_AC3
  48. Duration                                  :  1 h 57 min
  49. Bit rate mode                             :  Constant
  50. Bit rate                                  :  384 kb/s
  51. Channel(s)                                :  6 channels
  52. Channel layout                            :  L R C LFE Ls Rs
  53. Sampling rate                             :  48.0 kHz
  54. Frame rate                                :  31.250 FPS (1536 SPF)
  55. Bit depth                                 :  16 bits
  56. Compression mode                          :  Lossy
  57. Delay relative to video                   :  29 ms
  58. Stream size                               :  323 MiB (9%)
  59. Language                                  :  English
  60. Service kind                              :  Complete Main
  61. Default                                   :  Yes
  62. Forced                                    :  No
  63.  
  64. *** Text
  65. ID                                        :  1
  66. Format                                    :  UTF-8
  67. Codec ID                                  :  S_TEXT/UTF8
  68. Codec ID/Info                             :  UTF-8 Plain Text
  69. Duration                                  :  1 h 54 min
  70. Bit rate                                  :  52 b/s
  71. Count of elements                         :  1681
  72. Stream size                               :  44.0 KiB (0%)
  73. Language                                  :  English
  74. Default                                   :  Yes
  75. Forced                                    :  No
RAW Paste Data
We use cookies for various purposes including analytics. By continuing to use Pastebin, you agree to our use of cookies as described in the Cookies Policy. OK, I Understand
Not a member of Pastebin yet?
Sign Up, it unlocks many cool features!
 
Top