Guest User

E01

a guest
Feb 11th, 2018
736
Never
Not a member of Pastebin yet? Sign Up, it unlocks many cool features!
  1. General
  2. Unique ID : 212561907695866465800299396690480453934 (0x9FE9EF2EBA3AF35C80F3C9D7DA23D92E)
  3. Complete name : Gurren Lagann - 1x01 - Bust Through the Heavens With Your Drill!! [1080p][x265].mkv
  4. Format : Matroska
  5. Format version : Version 4 / Version 2
  6. File size : 260 MiB
  7. Duration : 25 min 51 s
  8. Overall bit rate : 1 404 kb/s
  9. Encoded date : UTC 2015-12-31 00:17:01
  10. Writing application : mkvmerge v8.5.2 ('Crosses') 64bit
  11. Writing library : libebml v1.3.3 + libmatroska v1.4.4
  12.  
  13. Video
  14. ID : 1
  15. Format : HEVC
  16. Format/Info : High Efficiency Video Coding
  17. Format profile : Main 10@L4@Main
  18. Codec ID : V_MPEGH/ISO/HEVC
  19. Duration : 25 min 51 s
  20. Bit rate : 1 221 kb/s
  21. Width : 1 920 pixels
  22. Height : 1 080 pixels
  23. Display aspect ratio : 16:9
  24. Frame rate mode : Constant
  25. Frame rate : 23.976 (24000/1001) FPS
  26. Color space : YUV
  27. Chroma subsampling : 4:2:0
  28. Bit depth : 10 bits
  29. Bits/(Pixel*Frame) : 0.025
  30. Stream size : 226 MiB (87%)
  31. Writing library : x265 1.8+31-b6156a08b1de:[Windows][GCC 5.2.0][64 bit] 10bit
  32. Encoding settings : wpp / ctu=64 / min-cu-size=8 / max-tu-size=32 / tu-intra-depth=1 / tu-inter-depth=1 / me=1 / subme=2 / merange=57 / no-rect / no-amp / max-merge=2 / temporal-mvp / no-early-skip / rdpenalty=0 / no-tskip / no-tskip-fast / strong-intra-smoothing / no-lossless / no-cu-lossless / no-constrained-intra / no-fast-intra / open-gop / no-temporal-layers / interlace=0 / keyint=250 / min-keyint=23 / scenecut=40 / rc-lookahead=20 / lookahead-slices=0 / bframes=4 / bframe-bias=0 / b-adapt=2 / ref=3 / limit-refs=0 / weightp / no-weightb / aq-mode=1 / qg-size=32 / aq-strength=1.00 / cbqpoffs=0 / crqpoffs=0 / rd=3 / psy-rd=0.30 / rdoq-level=0 / psy-rdoq=0.00 / signhide / deblock / sao / no-sao-non-deblock / b-pyramid / cutree / rc=2 / pass / bitrate=1220 / qcomp=0.60 / qpmin=0 / qpmax=51 / qpstep=4 / cplxblur=20.0 / qblur=0.5 / ipratio=1.40 / pbratio=1.30
  33. Default : Yes
  34. Forced : No
  35.  
  36. Audio #1
  37. ID : 2
  38. Format : AAC
  39. Format/Info : Advanced Audio Codec
  40. Format profile : HE-AAC / LC
  41. Format settings : Explicit
  42. Codec ID : A_AAC-2
  43. Duration : 25 min 51 s
  44. Bit rate : 82.4 kb/s
  45. Channel(s) : 2 channels
  46. Channel positions : Front: L R
  47. Sampling rate : 48.0 kHz / 24.0 kHz
  48. Frame rate : 23.438 FPS (1024 SPF)
  49. Compression mode : Lossy
  50. Delay relative to video : 40 ms
  51. Stream size : 15.2 MiB (6%)
  52. Language : English
  53. Default : Yes
  54. Forced : No
  55.  
  56. Audio #2
  57. ID : 3
  58. Format : AAC
  59. Format/Info : Advanced Audio Codec
  60. Format profile : HE-AAC / LC
  61. Format settings : Explicit
  62. Codec ID : A_AAC-2
  63. Duration : 25 min 51 s
  64. Bit rate : 82.3 kb/s
  65. Channel(s) : 2 channels
  66. Channel positions : Front: L R
  67. Sampling rate : 48.0 kHz / 24.0 kHz
  68. Frame rate : 23.438 FPS (1024 SPF)
  69. Compression mode : Lossy
  70. Delay relative to video : 40 ms
  71. Stream size : 15.2 MiB (6%)
  72. Language : Japanese
  73. Default : No
  74. Forced : No
  75.  
  76. Text
  77. ID : 4
  78. Format : PGS
  79. Muxing mode : zlib
  80. Codec ID : S_HDMV/PGS
  81. Codec ID/Info : Picture based subtitle format used on BDs/HD-DVDs
  82. Duration : 25 min 39 s
  83. Bit rate : 16.3 kb/s
  84. Count of elements : 640
  85. Stream size : 2.98 MiB (1%)
  86. Language : English
  87. Default : No
  88. Forced : No
RAW Paste Data