SHARE
TWEET

The.Old.Man.and.the.Gun.2018.1080p.AMZN.WEB-DL.DDP5.1.H.264-NTG.mkv

iMN0 Jan 7th, 2019 44 Never
Not a member of Pastebin yet? Sign Up, it unlocks many cool features!
  1. General
  2. Unique ID                                : 306880773595707486239991033615292902295 (0xE6DF164DA87C51D98544CCD68D1D2B97)
  3. Complete name                            : The.Old.Man.and.the.Gun.2018.1080p.AMZN.WEB-DL.DDP5.1.H.264-NTG.mkv
  4. Format                                   : Matroska
  5. Format version                           : Version 4 / Version 2
  6. File size                                : 7.25 GiB
  7. Duration                                 : 1h 33mn
  8. Overall bit rate                         : 11.2 Mbps
  9. Encoded date                             : UTC 2019-01-07 14:10:56
  10. Writing application                      : mkvmerge v21.0.0 ('Tardigrades Will Inherit The Earth') 64-bit
  11. Writing library                          : libebml v1.3.5 + libmatroska v1.4.8
  12.  
  13. Video
  14. ID                                       : 1
  15. Format                                   : AVC
  16. Format/Info                              : Advanced Video Codec
  17. Format profile                           : High@L4
  18. Format settings, CABAC                   : Yes
  19. Format settings, ReFrames                : 4 frames
  20. Codec ID                                 : V_MPEG4/ISO/AVC
  21. Duration                                 : 1h 33mn
  22. Bit rate                                 : 10.5 Mbps
  23. Width                                    : 1 920 pixels
  24. Height                                   : 800 pixels
  25. Display aspect ratio                     : 2.40:1
  26. Frame rate mode                          : Constant
  27. Frame rate                               : 23.976 (24000/1001) fps
  28. Color space                              : YUV
  29. Chroma subsampling                       : 4:2:0
  30. Bit depth                                : 8 bits
  31. Scan type                                : Progressive
  32. Bits/(Pixel*Frame)                       : 0.286
  33. Stream size                              : 6.83 GiB (94%)
  34. Default                                  : Yes
  35. Forced                                   : No
  36. Color range                              : Limited
  37. Color primaries                          : BT.709
  38. Transfer characteristics                 : BT.709
  39. Matrix coefficients                      : BT.709
  40.  
  41. Audio
  42. ID                                       : 2
  43. Format                                   : E-AC-3
  44. Format/Info                              : Audio Coding 3
  45. Format settings, Endianness              : Big
  46. Codec ID                                 : A_EAC3
  47. Duration                                 : 1h 33mn
  48. Bit rate mode                            : Constant
  49. Bit rate                                 : 640 Kbps
  50. Channel(s)                               : 6 channels
  51. Channel positions                        : Front: L C R, Side: L R, LFE
  52. Sampling rate                            : 48.0 KHz
  53. Frame rate                               : 187.500 fps (256 spf)
  54. Compression mode                         : Lossy
  55. Stream size                              : 426 MiB (6%)
  56. Language                                 : English
  57. Default                                  : Yes
  58. Forced                                   : No
  59.  
  60. Text
  61. ID                                       : 3
  62. Format                                   : UTF-8
  63. Codec ID                                 : S_TEXT/UTF8
  64. Codec ID/Info                            : UTF-8 Plain Text
  65. Duration                                 : 1h 30mn
  66. Bit rate                                 : 64 bps
  67. Count of elements                        : 1448
  68. Stream size                              : 42.7 KiB (0%)
  69. Title                                    : SDH
  70. Language                                 : English
  71. Default                                  : No
  72. Forced                                   : No
RAW Paste Data
We use cookies for various purposes including analytics. By continuing to use Pastebin, you agree to our use of cookies as described in the Cookies Policy. OK, I Understand
 
Top