Guest User

Untitled

a guest
Dec 6th, 2019
95
Never
Not a member of Pastebin yet? Sign Up, it unlocks many cool features!
  1. Общее
  2. Уникальный идентификатор : 319670713079381335690458940804208060264 (0xF07E57017AA9CF1BB605FD5ECBA8E768)
  3. Полное имя : B:\Глава государства - Head of State (2003) WEBRip 1080p DVO + AVO (Карповский)_RARBG\Head.Of.State.2003.1080p.WEBRip.DDP5.1.x264.mkv
  4. Формат : Matroska
  5. Версия формата : Version 2
  6. Размер файла : 10,2 Гбайт
  7. Продолжительность : 1 ч. 35 м.
  8. Режим общего битрейта : Переменный
  9. Общий поток : 15,4 Мбит/сек
  10. Дата кодирования : UTC 2019-12-01 01:32:35
  11. Программа кодирования : mkvmerge v29.0.0 ('Like It Or Not') 64-bit
  12. Библиотека кодирования : libebml v1.3.6 + libmatroska v1.4.9
  13. DURATION : 01:28:16.958000000
  14. NUMBER_OF_FRAMES : 1555
  15. NUMBER_OF_BYTES : 41864
  16. _STATISTICS_WRITING_APP : mkvmerge v29.0.0 ('Like It Or Not') 64-bit
  17. _STATISTICS_WRITING_DATE_UTC : 2019-12-01 01:32:35
  18. _STATISTICS_TAGS : BPS DURATION NUMBER_OF_FRAMES NUMBER_OF_BYTES
  19.  
  20. Видео
  21. Идентификатор : 1
  22. Формат : AVC
  23. Формат/Информация : Advanced Video Codec
  24. Профиль формата : High@L4.0
  25. Параметр CABAC формата : Да
  26. Параметр ReFrames формата : 4 кадра
  27. Идентификатор кодека : V_MPEG4/ISO/AVC
  28. Вид битрейта : Переменный
  29. Битрейт : 13,4 Мбит/сек
  30. Максимальный битрейт : 15,0 Мбит/сек
  31. Ширина : 1920 пикселей
  32. Высота : 1080 пикселей
  33. Соотношение сторон : 16:9
  34. Режим частоты кадров : Переменный
  35. Частота кадров в оригинале : 23,976 кадра/сек
  36. Цветовое пространство : YUV
  37. Субдискретизация насыщенности : 4:2:0
  38. Битовая глубина : 8 бит
  39. Тип развёртки : Прогрессивная
  40. Заголовок : Head of State (2003) WEBRip.1080p; Rip. - Pawel2006, assembly "seyshel" for kinozal.tv
  41. Default : Да
  42. Forced : Нет
  43. Основные цвета : BT.709
  44. Характеристики трансфера : BT.709
  45. Коэффициенты матрицы : BT.709
  46.  
  47. Аудио #1
  48. Идентификатор : 2
  49. Формат : AC-3
  50. Формат/Информация : Audio Coding 3
  51. Расширение режима : CM (complete main)
  52. Параметр Endianness формата : Big
  53. Идентификатор кодека : A_AC3
  54. Продолжительность : 1 ч. 35 м.
  55. Вид битрейта : Постоянный
  56. Битрейт : 448 Кбит/сек
  57. Каналы : 6 каналов
  58. Расположение каналов : Front: L C R, Side: L R, LFE
  59. Частота : 48,0 КГц
  60. Битовая глубина : 16 бит
  61. Метод сжатия : С потерями
  62. Размер потока : 305 Мбайт (3%)
  63. Заголовок : AC3; 48.0 KHz; 6 ch.; 448 Kbps - DVO
  64. Язык : Russian
  65. Default : Да
  66. Forced : Нет
  67.  
  68. Аудио #2
  69. Идентификатор : 3
  70. Формат : AC-3
  71. Формат/Информация : Audio Coding 3
  72. Расширение режима : CM (complete main)
  73. Параметр Endianness формата : Big
  74. Идентификатор кодека : A_AC3
  75. Продолжительность : 1 ч. 35 м.
  76. Вид битрейта : Постоянный
  77. Битрейт : 192 Кбит/сек
  78. Каналы : 2 канала
  79. Расположение каналов : Front: L R
  80. Частота : 48,0 КГц
  81. Битовая глубина : 16 бит
  82. Метод сжатия : С потерями
  83. Размер потока : 131 Мбайт (1%)
  84. Заголовок : AC3; 48.0 KHz; 2 ch.; 192 Kbps - AVO (Карповский)
  85. Язык : Russian
  86. Default : Нет
  87. Forced : Нет
  88.  
  89. Аудио #3
  90. Идентификатор : 4
  91. Формат : AC-3
  92. Формат/Информация : Audio Coding 3
  93. Расширение режима : CM (complete main)
  94. Параметр Endianness формата : Big
  95. Идентификатор кодека : A_AC3
  96. Продолжительность : 1 ч. 35 м.
  97. Вид битрейта : Постоянный
  98. Битрейт : 384 Кбит/сек
  99. Каналы : 6 каналов
  100. Расположение каналов : Front: L C R, Side: L R, LFE
  101. Частота : 48,0 КГц
  102. Битовая глубина : 16 бит
  103. Метод сжатия : С потерями
  104. Размер потока : 262 Мбайт (2%)
  105. Заголовок : AC3; 48.0 KHz; 6 ch.; 384 Kbps - Original
  106. Язык : English
  107. Default : Нет
  108. Forced : Нет
  109.  
  110. Аудио #4
  111. Идентификатор : 5
  112. Формат : E-AC-3
  113. Формат/Информация : Audio Coding 3
  114. Параметр Endianness формата : Big
  115. Идентификатор кодека : A_EAC3
  116. Продолжительность : 1 ч. 35 м.
  117. Вид битрейта : Постоянный
  118. Битрейт : 640 Кбит/сек
  119. Каналы : 6 каналов
  120. Расположение каналов : Front: L C R, Side: L R, LFE
  121. Частота : 48,0 КГц
  122. Метод сжатия : С потерями
  123. Размер потока : 436 Мбайт (4%)
  124. Заголовок : EAC3; 48.0 KHz; 6 ch.; 640 Kbps - Original
  125. Язык : English
  126. Default : Нет
  127. Forced : Нет
  128.  
  129. Текст #1
  130. Идентификатор : 6
  131. Формат : UTF-8
  132. Идентификатор кодека : S_TEXT/UTF8
  133. Идентификатор кодека/Информация : UTF-8 Plain Text
  134. Заголовок : Russian [Full]
  135. Язык : Russian
  136. Default : Нет
  137. Forced : Нет
  138.  
  139. Текст #2
  140. Идентификатор : 7
  141. Формат : UTF-8
  142. Идентификатор кодека : S_TEXT/UTF8
  143. Идентификатор кодека/Информация : UTF-8 Plain Text
  144. Заголовок : English [Full]
  145. Язык : English
  146. Default : Нет
  147. Forced : Нет
  148.  
  149. Текст #3
  150. Идентификатор : 8
  151. Формат : UTF-8
  152. Идентификатор кодека : S_TEXT/UTF8
  153. Идентификатор кодека/Информация : UTF-8 Plain Text
  154. Заголовок : English [SDH]
  155. Язык : English
  156. Default : Нет
  157. Forced : Нет
  158.  
  159. Текст #4
  160. Идентификатор : 9
  161. Формат : UTF-8
  162. Идентификатор кодека : S_TEXT/UTF8
  163. Идентификатор кодека/Информация : UTF-8 Plain Text
  164. Заголовок : Castilian [Full]
  165. Язык : Spanish
  166. Default : Нет
  167. Forced : Нет
  168.  
  169. Текст #5
  170. Идентификатор : 10
  171. Формат : UTF-8
  172. Идентификатор кодека : S_TEXT/UTF8
  173. Идентификатор кодека/Информация : UTF-8 Plain Text
  174. Заголовок : Spanish [Full]
  175. Язык : Spanish
  176. Default : Нет
  177. Forced : Нет
  178.  
  179. Текст #6
  180. Идентификатор : 11
  181. Формат : UTF-8
  182. Идентификатор кодека : S_TEXT/UTF8
  183. Идентификатор кодека/Информация : UTF-8 Plain Text
  184. Заголовок : French [Full]
  185. Язык : French
  186. Default : Нет
  187. Forced : Нет
  188.  
  189. Текст #7
  190. Идентификатор : 12
  191. Формат : UTF-8
  192. Идентификатор кодека : S_TEXT/UTF8
  193. Идентификатор кодека/Информация : UTF-8 Plain Text
  194. Заголовок : German [Full]
  195. Язык : German
  196. Default : Нет
  197. Forced : Нет
  198.  
  199. Текст #8
  200. Идентификатор : 13
  201. Формат : UTF-8
  202. Идентификатор кодека : S_TEXT/UTF8
  203. Идентификатор кодека/Информация : UTF-8 Plain Text
  204. Заголовок : Italian [Full]
  205. Язык : Italian
  206. Default : Нет
  207. Forced : Нет
  208.  
  209. Текст #9
  210. Идентификатор : 14
  211. Формат : UTF-8
  212. Идентификатор кодека : S_TEXT/UTF8
  213. Идентификатор кодека/Информация : UTF-8 Plain Text
  214. Заголовок : Brazilian Portuguese [Full]
  215. Язык : Portuguese
  216. Default : Нет
  217. Forced : Нет
  218.  
  219. Текст #10
  220. Идентификатор : 15
  221. Формат : UTF-8
  222. Идентификатор кодека : S_TEXT/UTF8
  223. Идентификатор кодека/Информация : UTF-8 Plain Text
  224. Заголовок : Polish [Full]
  225. Язык : Polish
  226. Default : Нет
  227. Forced : Нет
  228.  
  229. Текст #11
  230. Идентификатор : 16
  231. Формат : UTF-8
  232. Идентификатор кодека : S_TEXT/UTF8
  233. Идентификатор кодека/Информация : UTF-8 Plain Text
  234. Заголовок : Turkish [Full]
  235. Язык : Turkish
  236. Default : Нет
  237. Forced : Нет
  238.  
  239. Текст #12
  240. Идентификатор : 17
  241. Формат : UTF-8
  242. Идентификатор кодека : S_TEXT/UTF8
  243. Идентификатор кодека/Информация : UTF-8 Plain Text
  244. Заголовок : Dutch [Full]
  245. Язык : Dutch
  246. Default : Нет
  247. Forced : Нет
  248.  
  249. Текст #13
  250. Идентификатор : 18
  251. Формат : UTF-8
  252. Идентификатор кодека : S_TEXT/UTF8
  253. Идентификатор кодека/Информация : UTF-8 Plain Text
  254. Заголовок : Arabic [Full]
  255. Язык : Arabic
  256. Default : Нет
  257. Forced : Нет
  258.  
  259. Текст #14
  260. Идентификатор : 19
  261. Формат : UTF-8
  262. Идентификатор кодека : S_TEXT/UTF8
  263. Идентификатор кодека/Информация : UTF-8 Plain Text
  264. Заголовок : Chinese (Simplified) [Full]
  265. Язык : Chinese
  266. Default : Нет
  267. Forced : Нет
  268.  
  269. Текст #15
  270. Идентификатор : 20
  271. Формат : UTF-8
  272. Идентификатор кодека : S_TEXT/UTF8
  273. Идентификатор кодека/Информация : UTF-8 Plain Text
  274. Заголовок : Chinese (Traditional) [Full]
  275. Язык : Chinese
  276. Default : Нет
  277. Forced : Нет
  278.  
  279. Текст #16
  280. Идентификатор : 21
  281. Формат : UTF-8
  282. Идентификатор кодека : S_TEXT/UTF8
  283. Идентификатор кодека/Информация : UTF-8 Plain Text
  284. Заголовок : Japanese [Full]
  285. Язык : Japanese
  286. Default : Нет
  287. Forced : Нет
  288.  
  289. Меню
  290. 00:00:00.000 : en:Studio Logo
  291. 00:00:23.000 : en:Opening Credits
  292. 00:01:37.000 : en:Escaping Rattrap
  293. 00:05:41.000 : en:Never hang up on your girlfriend
  294. 00:09:10.000 : en:A common man who works for common people
  295. 00:17:49.000 : en:Duties and fundraising event
  296. 00:26:47.000 : en:It ain't right
  297. 00:36:05.000 : en:Change in strategy
  298. 00:40:32.000 : en:7 weeks to election
  299. 00:46:11.000 : en:Crib malt liquor
  300. 00:53:58.000 : en:Mays find out the truth
  301. 00:57:59.000 : en:Just run your race
  302. 01:05:02.000 : en:The big debate
  303. 01:17:05.000 : en:The counting started
  304. 01:21:06.000 : en:The big day
  305. 01:27:35.000 : en:End Credits
RAW Paste Data