SHARE
TWEET

Various Artists - Imaginary Friends

sober Aug 8th, 2012 116 Never
Not a member of Pastebin yet? Sign Up, it unlocks many cool features!
  1. REM GENRE Ambient
  2. REM DATE 2009
  3. PERFORMER "Various Artists"
  4. TITLE "Imaginary Friends"
  5. FILE "Various Artists - Imaginary Friends.mp3" WAVE
  6.   TRACK 01 AUDIO
  7.     TITLE "Regenzeit II"
  8.     PERFORMER "Field Rotation"
  9.     INDEX 01 00:00:00
  10.   TRACK 02 AUDIO
  11.     TITLE "Three Weeks"
  12.     PERFORMER "Kevin Andrew"
  13.     INDEX 01 07:19:58
  14.   TRACK 03 AUDIO
  15.     TITLE "Photosynthesis (Nalepa remix)"
  16.     PERFORMER "Rena Jones"
  17.     INDEX 01 12:49:17
  18.   TRACK 04 AUDIO
  19.     TITLE "Gently, Drown the scene"
  20.     PERFORMER "Offthesky"
  21.     INDEX 01 19:57:71
  22.   TRACK 05 AUDIO
  23.     TITLE "Gray Daze"
  24.     PERFORMER "Murya"
  25.     INDEX 01 26:25:47
  26.   TRACK 06 AUDIO
  27.     TITLE "Out of Breath"
  28.     PERFORMER "Cell"
  29.     INDEX 01 31:04:61
  30.   TRACK 07 AUDIO
  31.     TITLE "Resin"
  32.     PERFORMER "Aes Dana"
  33.     INDEX 01 37:00:01
  34.   TRACK 08 AUDIO
  35.     TITLE "Handwritten notes"
  36.     PERFORMER "Hol Baumann"
  37.     INDEX 01 44:23:03
  38.   TRACK 09 AUDIO
  39.     TITLE "Longing for silence"
  40.     PERFORMER "Asura"
  41.     INDEX 01 49:49:38
  42.   TRACK 10 AUDIO
  43.     TITLE "Times are good (sometimes remix)"
  44.     PERFORMER "Solar Fields"
  45.     INDEX 01 58:03:61
  46.   TRACK 11 AUDIO
  47.     TITLE "Eleven (Decades mix)"
  48.     PERFORMER "James Murray"
  49.     INDEX 01 66:13:35
  50.  
  51. Download: http://ul.to/ewwcynrf
RAW Paste Data
We use cookies for various purposes including analytics. By continuing to use Pastebin, you agree to our use of cookies as described in the Cookies Policy. OK, I Understand
Top