SHARE
TWEET

Yes.Man.2008.1080p.BluRay.REMUX.VC-1.TrueHD.5.1-EPSiLON

a guest May 19th, 2019 30 Never
Not a member of Pastebin yet? Sign Up, it unlocks many cool features!
  1. General
  2. Complete name                            : Yes.Man.2008.1080p.BluRay.REMUX.VC-1.TrueHD.5.1-EPSiLON.mkv
  3. Format                                   : Matroska
  4. Format version                           : Version 4
  5. File size                                : 17.2 GiB
  6. Duration                                 : 1 h 44 min
  7. Overall bit rate mode                    : Variable
  8. Overall bit rate                         : 23.5 Mb/s
  9. Encoded date                             : UTC 2017-05-14 17:45:52
  10. Writing application                      : mkvmerge v11.0.0 ('Alive') 64bit
  11. Writing library                          : libebml v1.3.4 + libmatroska v1.4.5
  12.  
  13. Video
  14. ID                                       : 1
  15. Format                                   : VC-1
  16. Format profile                           : Advanced@L3
  17. Codec ID                                 : V_MS/VFW/FOURCC / WVC1
  18. Codec ID/Hint                            : Microsoft
  19. Duration                                 : 1 h 44 min
  20. Bit rate                                 : 21.1 Mb/s
  21. Width                                    : 1 920 pixels
  22. Height                                   : 1 080 pixels
  23. Display aspect ratio                     : 16:9
  24. Frame rate mode                          : Constant
  25. Frame rate                               : 23.976 (24000/1001) FPS
  26. Color space                              : YUV
  27. Chroma subsampling                       : 4:2:0
  28. Bit depth                                : 8 bits
  29. Scan type                                : Progressive
  30. Compression mode                         : Lossy
  31. Bits/(Pixel*Frame)                       : 0.425
  32. Stream size                              : 15.4 GiB (90%)
  33. Title                                    : VC-1 Video / 21143 kbps / 1080p / 23.976 fps / 16:9 / Advanced Profile 3
  34. Language                                 : English
  35. Default                                  : Yes
  36. Forced                                   : No
  37.  
  38. Audio #1
  39. ID                                       : 2
  40. Format                                   : MLP FBA
  41. Format/Info                              : Meridian Lossless Packing FBA
  42. Commercial name                          : Dolby TrueHD
  43. Codec ID                                 : A_TRUEHD
  44. Duration                                 : 1 h 44 min
  45. Bit rate mode                            : Variable
  46. Bit rate                                 : 1 556 kb/s
  47. Maximum bit rate                         : 2 871 kb/s
  48. Channel(s)                               : 6 channels
  49. Channel layout                           : L R C LFE Ls Rs
  50. Sampling rate                            : 48.0 kHz
  51. Frame rate                               : 1 200.000 FPS (40 SPF)
  52. Compression mode                         : Lossless
  53. Stream size                              : 1.14 GiB (7%)
  54. Title                                    : Dolby TrueHD Audio / 1557 kbps / 5.1 / 48 kHz / 16-bit
  55. Language                                 : English
  56. Default                                  : Yes
  57. Forced                                   : No
  58.  
  59. Audio #2
  60. ID                                       : 3
  61. Format                                   : AC-3
  62. Format/Info                              : Audio Coding 3
  63. Commercial name                          : Dolby Digital
  64. Codec ID                                 : A_AC3
  65. Duration                                 : 1 h 44 min
  66. Bit rate mode                            : Constant
  67. Bit rate                                 : 640 kb/s
  68. Channel(s)                               : 6 channels
  69. Channel layout                           : L R C LFE Ls Rs
  70. Sampling rate                            : 48.0 kHz
  71. Frame rate                               : 31.250 FPS (1536 SPF)
  72. Bit depth                                : 16 bits
  73. Compression mode                         : Lossy
  74. Stream size                              : 478 MiB (3%)
  75. Title                                    : Compatibility Track / Dolby Digital Audio / 5.1 / 48 kHz / 640 kbps
  76. Language                                 : English
  77. Service kind                             : Complete Main
  78. Default                                  : No
  79. Forced                                   : No
  80.  
  81. Text #1
  82. ID                                       : 4
  83. Format                                   : PGS
  84. Codec ID                                 : S_HDMV/PGS
  85. Codec ID/Info                            : Picture based subtitle format used on BDs/HD-DVDs
  86. Duration                                 : 1 h 43 min
  87. Bit rate                                 : 39.5 kb/s
  88. Count of elements                        : 3112
  89. Stream size                              : 29.3 MiB (0%)
  90. Title                                    : SDH
  91. Language                                 : English
  92. Default                                  : No
  93. Forced                                   : No
  94.  
  95. Text #2
  96. ID                                       : 5
  97. Format                                   : PGS
  98. Codec ID                                 : S_HDMV/PGS
  99. Codec ID/Info                            : Picture based subtitle format used on BDs/HD-DVDs
  100. Duration                                 : 1 h 43 min
  101. Bit rate                                 : 25.8 kb/s
  102. Count of elements                        : 2740
  103. Stream size                              : 19.2 MiB (0%)
  104. Language                                 : French
  105. Default                                  : No
  106. Forced                                   : No
  107.  
  108. Text #3
  109. ID                                       : 6
  110. Format                                   : PGS
  111. Codec ID                                 : S_HDMV/PGS
  112. Codec ID/Info                            : Picture based subtitle format used on BDs/HD-DVDs
  113. Duration                                 : 1 h 43 min
  114. Bit rate                                 : 35.1 kb/s
  115. Count of elements                        : 2910
  116. Stream size                              : 26.1 MiB (0%)
  117. Language                                 : Portuguese
  118. Default                                  : No
  119. Forced                                   : No
  120.  
  121. Text #4
  122. ID                                       : 7
  123. Format                                   : PGS
  124. Codec ID                                 : S_HDMV/PGS
  125. Codec ID/Info                            : Picture based subtitle format used on BDs/HD-DVDs
  126. Duration                                 : 1 h 43 min
  127. Bit rate                                 : 35.4 kb/s
  128. Count of elements                        : 2864
  129. Stream size                              : 26.3 MiB (0%)
  130. Language                                 : Spanish
  131. Default                                  : No
  132. Forced                                   : No
  133.  
  134. Menu
  135. 00:00:00.000                             : en:Chapter 1
  136. 00:04:51.374                             : en:Chapter 2
  137. 00:07:44.964                             : en:Chapter 3
  138. 00:13:22.593                             : en:Chapter 4
  139. 00:19:56.946                             : en:Chapter 5
  140. 00:23:30.826                             : en:Chapter 6
  141. 00:27:32.442                             : en:Chapter 7
  142. 00:30:48.638                             : en:Chapter 8
  143. 00:36:00.408                             : en:Chapter 9
  144. 00:38:58.795                             : en:Chapter 10
  145. 00:41:43.668                             : en:Chapter 12
  146. 00:44:38.676                             : en:Chapter 13
  147. 00:51:22.496                             : en:Chapter 14
  148. 00:55:16.605                             : en:Chapter 15
  149. 00:59:25.729                             : en:Chapter 16
  150. 01:02:47.722                             : en:Chapter 17
  151. 01:08:15.758                             : en:Chapter 18
  152. 01:13:52.011                             : en:Chapter 19
  153. 01:18:50.684                             : en:Chapter 20
  154. 01:21:40.854                             : en:Chapter 21
  155. 01:26:08.205                             : en:Chapter 22
  156. 01:28:50.992                             : en:Chapter 23
  157. 01:32:58.239                             : en:Chapter 24
  158. 01:36:04.759                             : en:Chapter 25
  159. 01:36:59.313                             : en:Chapter 26
RAW Paste Data
We use cookies for various purposes including analytics. By continuing to use Pastebin, you agree to our use of cookies as described in the Cookies Policy. OK, I Understand
 
Top