SHARE
TWEET

Working ffmpeg output

a guest Sep 16th, 2019 128 Never
Not a member of Pastebin yet? Sign Up, it unlocks many cool features!
  1. [info] ffmpeg started on 2019-09-16 at 10:59:13
  2. Report written to "ffmpeg-20190916-105913.log"
  3. Command line:
  4. ffmpeg -y -f x11grab -s wuxga -r 5 -i :1 output.avi -loglevel repeat+level+debug -report
  5. [info] ffmpeg version 4.0.2 Copyright (c) 2000-2018 the FFmpeg developers
  6. [info]   built with gcc 7 (SUSE Linux)
  7. [info]   configuration: --prefix=/usr --libdir=/usr/lib64 --shlibdir=/usr/lib64 --incdir=/usr/include/ffmpeg --docdir=/usr/share/doc/packages/ffmpeg --extra-cflags='-fmessage-length=0 -grecord-gcc-switches -O2 -Wall -D_FORTIFY_SOURCE=2 -fstack-protector-strong -funwind-tables -fasynchronous-unwind-tables -fstack-clash-protection' --optflags='-fmessage-length=0 -grecord-gcc-switches -O2 -Wall -D_FORTIFY_SOURCE=2 -fstack-protector-strong -funwind-tables -fasynchronous-unwind-tables -fstack-clash-protection' --enable-pic --disable-stripping --enable-shared --disable-static --enable-runtime-cpudetect --enable-libxcb --enable-libxcb-shm --enable-libxcb-xfixes --enable-libxcb-shape
  8. [info]   libavutil      56. 14.100 / 56. 14.100
  9. [info]   libavcodec     58. 18.100 / 58. 18.100
  10. [info]   libavformat    58. 12.100 / 58. 12.100
  11. [info]   libavdevice    58.  3.100 / 58.  3.100
  12. [info]   libavfilter     7. 16.100 /  7. 16.100
  13. [info]   libswscale      5.  1.100 /  5.  1.100
  14. [info]   libswresample   3.  1.100 /  3.  1.100
  15. [debug] Splitting the commandline.
  16. [debug] Reading option '-y' ... matched as option 'y' (overwrite output files) with argument '1'.
  17. [debug] Reading option '-f' ... matched as option 'f' (force format) with argument 'x11grab'.
  18. [debug] Reading option '-s' ... matched as option 's' (set frame size (WxH or abbreviation)) with argument 'wuxga'.
  19. [debug] Reading option '-r' ... matched as option 'r' (set frame rate (Hz value, fraction or abbreviation)) with argument '5'.
  20. [debug] Reading option '-i' ... matched as input url with argument ':1'.
  21. [debug] Reading option 'output.avi' ... matched as output url.
  22. [debug] Reading option '-loglevel' ... matched as option 'loglevel' (set logging level) with argument 'repeat+level+debug'.
  23. [debug] Reading option '-report' ... matched as option 'report' (generate a report) with argument '1'.
  24. [debug] Finished splitting the commandline.
  25. [debug] Parsing a group of options: global .
  26. [debug] Applying option y (overwrite output files) with argument 1.
  27. [debug] Applying option loglevel (set logging level) with argument repeat+level+debug.
  28. [debug] Applying option report (generate a report) with argument 1.
  29. [debug] Successfully parsed a group of options.
  30. [debug] Parsing a group of options: input url :1.
  31. [debug] Applying option f (force format) with argument x11grab.
  32. [debug] Applying option s (set frame size (WxH or abbreviation)) with argument wuxga.
  33. [debug] Applying option r (set frame rate (Hz value, fraction or abbreviation)) with argument 5.
  34. [debug] Successfully parsed a group of options.
  35. [debug] Opening an input file: :1.
  36. [x11grab @ 0x563d11c59a00] [debug] Probe buffer size limit of 5000000 bytes reached
  37. [x11grab @ 0x563d11c59a00] [warning] Stream #0: not enough frames to estimate rate; consider increasing probesize
  38. [info] Input #0, x11grab, from ':1':
  39. [info]   Duration: N/A, start: 1568631553.924293, bitrate: N/A
  40. [info]     Stream #0:0, 1, 1/1000000: Video: rawvideo, 1 reference frame (BGR[0] / 0x524742), bgr0, 1920x1200, 0/1, 5 fps, 1000k tbr, 1000k tbn, 1000k tbc
  41. [debug] Successfully opened the file.
  42. [debug] Parsing a group of options: output url output.avi.
  43. [debug] Successfully parsed a group of options.
  44. [debug] Opening an output file: output.avi.
  45. [file @ 0x563d11c6a900] [debug] Setting default whitelist 'file,crypto'
  46. [debug] Successfully opened the file.
  47. [info] Stream mapping:
  48. [info]   Stream #0:0 -> #0:0 (rawvideo (native) -> mpeg4 (native))
  49. [info] Press [q] to stop, [?] for help
  50. [debug] cur_dts is invalid (this is harmless if it occurs once at the start per stream)
  51. [rawvideo @ 0x563d11c65400] [debug] PACKET SIZE: 9216000, STRIDE: 7680
  52. [debug] detected 8 logical cores
  53. [graph 0 input from stream 0:0 @ 0x563d11c6d440] [debug] Setting 'video_size' to value '1920x1200'
  54. [graph 0 input from stream 0:0 @ 0x563d11c6d440] [debug] Setting 'pix_fmt' to value '123'
  55. [graph 0 input from stream 0:0 @ 0x563d11c6d440] [debug] Setting 'time_base' to value '1/5'
  56. [graph 0 input from stream 0:0 @ 0x563d11c6d440] [debug] Setting 'pixel_aspect' to value '0/1'
  57. [graph 0 input from stream 0:0 @ 0x563d11c6d440] [debug] Setting 'sws_param' to value 'flags=2'
  58. [graph 0 input from stream 0:0 @ 0x563d11c6d440] [debug] Setting 'frame_rate' to value '5/1'
  59. [graph 0 input from stream 0:0 @ 0x563d11c6d440] [verbose] w:1920 h:1200 pixfmt:bgr0 tb:1/5 fr:5/1 sar:0/1 sws_param:flags=2
  60. [format @ 0x563d11c6de40] [debug] Setting 'pix_fmts' to value 'yuv420p'
  61. [auto_scaler_0 @ 0x563d11c71000] [debug] Setting 'flags' to value 'bicubic'
  62. [auto_scaler_0 @ 0x563d11c71000] [verbose] w:iw h:ih flags:'bicubic' interl:0
  63. [format @ 0x563d11c6de40] [verbose] auto-inserting filter 'auto_scaler_0' between the filter 'Parsed_null_0' and the filter 'format'
  64. [AVFilterGraph @ 0x563d11c6c5c0] [debug] query_formats: 4 queried, 2 merged, 1 already done, 0 delayed
  65. [auto_scaler_0 @ 0x563d11c71000] [verbose] w:1920 h:1200 fmt:bgr0 sar:0/1 -> w:1920 h:1200 fmt:yuv420p sar:0/1 flags:0x4
  66. [mpeg4 @ 0x563d11c670c0] [debug] intra_quant_bias = 0 inter_quant_bias = -64
  67. [avi @ 0x563d11c65880] [debug] reserve_index_space:0 master_index_max_size:256
  68. [avi @ 0x563d11c65880] [debug] duration_est:36000.000, filesize_est:0.9GiB, master_index_max_size:256
  69. [info] Output #0, avi, to 'output.avi':
  70. [info]   Metadata:
  71. [info]     ISFT            : Lavf58.12.100
  72. [info]     Stream #0:0, 0, 1/5: Video: mpeg4, 1 reference frame (FMP4 / 0x34504D46), yuv420p, 1920x1200, 0/1, q=2-31, 200 kb/s, 5 fps, 5 tbn, 5 tbc
  73. [info]     Metadata:
  74. [info]       encoder         : Lavc58.18.100 mpeg4
  75. [info]     Side data:
  76. [info]       cpb: bitrate max/min/avg: 0/0/200000 buffer size: 0 vbv_delay: -1
  77. [debug] Clipping frame in rate conversion by 0.000008
  78. [rawvideo @ 0x563d11c65400] [debug] PACKET SIZE: 9216000, STRIDE: 7680
  79. [rawvideo @ 0x563d11c65400] [debug] PACKET SIZE: 9216000, STRIDE: 7680
  80. [rawvideo @ 0x563d11c65400] [debug] PACKET SIZE: 9216000, STRIDE: 7680
  81. [rawvideo @ 0x563d11c65400] [debug] PACKET SIZE: 9216000, STRIDE: 7680
  82. [info] frame=    5 fps=0.0 q=8.8 size=     518kB time=00:00:01.00 bitrate=4239.7kbits/s speed=1.65x    
  83. [rawvideo @ 0x563d11c65400] [debug] PACKET SIZE: 9216000, STRIDE: 7680
  84. [rawvideo @ 0x563d11c65400] [debug] PACKET SIZE: 9216000, STRIDE: 7680
  85. [rawvideo @ 0x563d11c65400] [debug] PACKET SIZE: 9216000, STRIDE: 7680
  86. [info] frame=    8 fps=6.6 q=17.2 size=     774kB time=00:00:01.60 bitrate=3960.6kbits/s speed=1.33x    
  87. [rawvideo @ 0x563d11c65400] [debug] PACKET SIZE: 9216000, STRIDE: 7680
  88. [info] frame=    9 fps=5.6 q=20.1 Lsize=     817kB time=00:00:01.80 bitrate=3717.2kbits/s speed=1.12x    
  89. [info] video:811kB audio:0kB subtitle:0kB other streams:0kB global headers:0kB muxing overhead: 0.711410%
  90. [verbose] Input file #0 (:1):
  91. [verbose]   Input stream #0:0 (video): 9 packets read (82944000 bytes); 9 frames decoded;
  92. [verbose]   Total: 9 packets (82944000 bytes) demuxed
  93. [verbose] Output file #0 (output.avi):
  94. [verbose]   Output stream #0:0 (video): 9 frames encoded; 9 packets muxed (830464 bytes);
  95. [verbose]   Total: 9 packets (830464 bytes) muxed
  96. [debug] 9 frames successfully decoded, 0 decoding errors
  97. [AVIOContext @ 0x563d11c6aac0] [debug] Statistics: 8 seeks, 11 writeouts
RAW Paste Data
We use cookies for various purposes including analytics. By continuing to use Pastebin, you agree to our use of cookies as described in the Cookies Policy. OK, I Understand
 
Top