SHARE
TWEET

Murder.Mystery.2019.ITA-ENG.1080p.NF.WEB-DL.DDP5.1.H.264-AX.

aleandroid Jun 25th, 2019 65 Never
Not a member of Pastebin yet? Sign Up, it unlocks many cool features!
  1. General
  2. Unique ID                                : 33227384395057798383207422330831299666 (0x18FF5C88831ED29458178847020AE452)
  3. Complete name                            : Murder.Mystery.2019.ITA-ENG.1080p.NF.WEB-DL.DDP5.1.H.264-AX.mkv
  4. Format                                   : Matroska
  5. Format version                           : Version 4 / Version 2
  6. File size                                : 3.68 GiB
  7. Duration                                 : 1 h 37 min
  8. Overall bit rate mode                    : Variable
  9. Overall bit rate                         : 5 386 kb/s
  10. Movie name                               : Murder Mystery (2019)
  11. Encoded date                             : UTC 2019-06-25 18:33:18
  12. Writing application                      : mkvmerge v34.0.0 ('Sight and Seen') 64-bit
  13. Writing library                          : libebml v1.3.7 + libmatroska v1.5.0
  14.  
  15. Video
  16. ID                                       : 1
  17. Format                                   : AVC
  18. Format/Info                              : Advanced Video Codec
  19. Format profile                           : Main@L4
  20. Format settings                          : CABAC / 3 Ref Frames
  21. Format settings, CABAC                   : Yes
  22. Format settings, RefFrames               : 3 frames
  23. Codec ID                                 : V_MPEG4/ISO/AVC
  24. Duration                                 : 1 h 37 min
  25. Bit rate mode                            : Variable
  26. Bit rate                                 : 4 220 kb/s
  27. Maximum bit rate                         : 6 330 kb/s
  28. Width                                    : 1 920 pixels
  29. Height                                   : 1 080 pixels
  30. Display aspect ratio                     : 16:9
  31. Frame rate mode                          : Constant
  32. Frame rate                               : 24.000 FPS
  33. Color space                              : YUV
  34. Chroma subsampling                       : 4:2:0
  35. Bit depth                                : 8 bits
  36. Scan type                                : Progressive
  37. Bits/(Pixel*Frame)                       : 0.085
  38. Stream size                              : 2.80 GiB (76%)
  39. Title                                    : NF WEB-DL 1080p
  40. Writing library                          : x264 core 148 r2715 7e75228
  41. Encoding settings                        : cabac=1 / ref=3 / deblock=1:0:0 / analyse=0x1:0x111 / me=umh / subme=10 / psy=1 / psy_rd=1.00:0.00 / mixed_ref=1 / me_range=24 / chroma_me=1 / trellis=2 / 8x8dct=0 / cqm=0 / deadzone=21,11 / fast_pskip=1 / chroma_qp_offset=-2 / threads=8 / lookahead_threads=1 / sliced_threads=0 / nr=0 / decimate=1 / interlaced=0 / bluray_compat=0 / stitchable=1 / constrained_intra=0 / bframes=2 / b_pyramid=0 / b_adapt=2 / b_bias=0 / direct=3 / weightb=1 / open_gop=0 / weightp=2 / keyint=250 / keyint_min=24 / scenecut=0 / intra_refresh=0 / rc_lookahead=48 / rc=2pass / mbtree=1 / bitrate=4220 / ratetol=1.0 / qcomp=0.50 / qpmin=6 / qpmax=51 / qpstep=4 / cplxblur=20.0 / qblur=0.5 / vbv_maxrate=6330 / vbv_bufsize=8440 / nal_hrd=vbr / filler=0 / ip_ratio=1.40 / aq=1:1.00
  42. Language                                 : English
  43. Default                                  : Yes
  44. Forced                                   : No
  45.  
  46. Audio #1
  47. ID                                       : 2
  48. Format                                   : E-AC-3
  49. Format/Info                              : Enhanced Audio Coding 3
  50. Codec ID                                 : A_EAC3
  51. Duration                                 : 1 h 37 min
  52. Bit rate mode                            : Constant
  53. Bit rate                                 : 640 kb/s
  54. Channel(s)                               : 6 channels
  55. Channel positions                        : Front: L C R, Side: L R, LFE
  56. Sampling rate                            : 48.0 kHz
  57. Frame rate                               : 187.500 FPS (256 SPF)
  58. Compression mode                         : Lossy
  59. Stream size                              : 448 MiB (12%)
  60. Title                                    : DDP 5.1 @ 640 kb/s
  61. Language                                 : Italian
  62. Service kind                             : Complete Main
  63. Default                                  : Yes
  64. Forced                                   : No
  65.  
  66. Audio #2
  67. ID                                       : 3
  68. Format                                   : E-AC-3
  69. Format/Info                              : Enhanced Audio Coding 3
  70. Codec ID                                 : A_EAC3
  71. Duration                                 : 1 h 37 min
  72. Bit rate mode                            : Constant
  73. Bit rate                                 : 640 kb/s
  74. Channel(s)                               : 6 channels
  75. Channel positions                        : Front: L C R, Side: L R, LFE
  76. Sampling rate                            : 48.0 kHz
  77. Frame rate                               : 187.500 FPS (256 SPF)
  78. Compression mode                         : Lossy
  79. Stream size                              : 448 MiB (12%)
  80. Title                                    : DDP 5.1 @ 640 kb/s
  81. Language                                 : English
  82. Service kind                             : Complete Main
  83. Default                                  : No
  84. Forced                                   : No
  85.  
  86. Text #1
  87. ID                                       : 4
  88. Format                                   : UTF-8
  89. Codec ID                                 : S_TEXT/UTF8
  90. Codec ID/Info                            : UTF-8 Plain Text
  91. Duration                                 : 1 h 36 min
  92. Bit rate                                 : 0 b/s
  93. Count of elements                        : 14
  94. Stream size                              : 313 Bytes (0%)
  95. Title                                    : Forced [IT]
  96. Language                                 : Italian
  97. Default                                  : Yes
  98. Forced                                   : Yes
  99.  
  100. Text #2
  101. ID                                       : 5
  102. Format                                   : UTF-8
  103. Codec ID                                 : S_TEXT/UTF8
  104. Codec ID/Info                            : UTF-8 Plain Text
  105. Duration                                 : 1 h 36 min
  106. Bit rate                                 : 80 b/s
  107. Count of elements                        : 1650
  108. Stream size                              : 56.8 KiB (0%)
  109. Title                                    : Full [IT]
  110. Language                                 : Italian
  111. Default                                  : No
  112. Forced                                   : No
  113.  
  114. Text #3
  115. ID                                       : 6
  116. Format                                   : UTF-8
  117. Codec ID                                 : S_TEXT/UTF8
  118. Codec ID/Info                            : UTF-8 Plain Text
  119. Duration                                 : 1 h 28 min
  120. Bit rate                                 : 99 b/s
  121. Count of elements                        : 1898
  122. Stream size                              : 64.3 KiB (0%)
  123. Title                                    : Full [EN]
  124. Language                                 : English
  125. Default                                  : No
  126. Forced                                   : No
RAW Paste Data
We use cookies for various purposes including analytics. By continuing to use Pastebin, you agree to our use of cookies as described in the Cookies Policy. OK, I Understand
 
Top