Advertisement
Asmodexia

Leon.The.Professional.1994.EXTENDED.2160p.GBR.UHD.BluRay.x265.10bit.HDR.TrueHD.7.1.Atmos-RARBG

May 6th, 2023 (edited)
126
0
Never
Not a member of Pastebin yet? Sign Up, it unlocks many cool features!
JSON 5.40 KB | None | 0 0
  1. Leon.The.Professional.1994.EXTENDED.2160p.GBR.UHD.BluRay.x265.10bit.HDR.TrueHD.7.1.Atmos-RARBG
  2.  
  3. Video
  4. ID : 1
  5. Format : HEVC
  6. Format/Info : High Efficiency Video Coding
  7. Format profile : Main 10@L5.1@Main
  8. HDR format : SMPTE ST 2086, HDR10 compatible
  9. Codec ID : V_MPEGH/ISO/HEVC
  10. Duration : 2 h 12 min
  11. Bit rate : 8 020 kb/s
  12. Width : 3 840 pixels
  13. Height : 1 604 pixels
  14. Display aspect ratio : 2.40:1
  15. Frame rate mode : Constant
  16. Frame rate : 24.000 FPS
  17. Color space : YUV
  18. Chroma subsampling : 4:2:0
  19. Bit depth : 10 bits
  20. Bits/(Pixel*Frame) : 0.054
  21. Stream size : 7.44 GiB (64%)
  22. Writing library : x265 3.5+rarbg-HDR-38-20255e6:[Linux][clang 16.0.0][64 bit] 10bit
  23. Encoding settings : cpuid=1111039 / frame-threads=6 / wpp / no-pmode / no-pme / no-psnr / no-ssim / log-level=2 / input-csp=1 / input-res=3840x1604 / interlace=0 / total-frames=0 / level-idc=51 / high-tier=1 / uhd-bd=0 / ref=4 / no-allow-non-conformance / repeat-headers / annexb / aud / no-eob / no-eos / no-hrd / info / hash=0 / no-temporal-layers / no-open-gop / min-keyint=1 / keyint=24 / gop-lookahead=0 / bframes=4 / b-adapt=2 / b-pyramid / bframe-bias=0 / rc-lookahead=25 / lookahead-slices=4 / scenecut=40 / no-hist-scenecut / radl=0 / no-splice / no-intra-refresh / ctu=64 / min-cu-size=8 / rect / no-amp / max-tu-size=32 / tu-inter-depth=1 / tu-intra-depth=1 / limit-tu=0 / rdoq-level=2 / dynamic-rd=0.00 / no-ssim-rd / signhide / no-tskip / nr-intra=0 / nr-inter=0 / no-constrained-intra / strong-intra-smoothing / max-merge=3 / limit-refs=3 / no-limit-modes / me=3 / subme=3 / merange=57 / temporal-mvp / no-frame-dup / no-hme / weightp / no-weightb / no-analyze-src-pics / deblock=0:0 / no-sao / no-sao-non-deblock / rd=4 / selective-sao=0 / no-early-skip / rskip / no-fast-intra / no-tskip-fast / no-cu-lossless / no-b-intra / no-splitrd-skip / rdpenalty=0 / psy-rd=2.00 / psy-rdoq=1.00 / no-rd-refine / no-lossless / cbqpoffs=0 / crqpoffs=0 / rc=abr / bitrate=8000 / qcomp=0.60 / qpstep=4 / stats-write=0 / stats-read=2 / cplxblur=20.0 / qblur=0.5 / ipratio=1.40 / pbratio=1.30 / aq-mode=1 / aq-strength=1.00 / cutree / zone-count=0 / no-strict-cbr / qg-size=32 / no-rc-grain / qpmax=69 / qpmin=0 / no-const-vbv / sar=1 / overscan=0 / videoformat=5 / range=0 / colorprim=9 / transfer=16 / colormatrix=9 / chromaloc=0 / display-window=0 / master-display=G(13250,34500)B(7500,3000)R(34000,16000)WP(15635,16450)L(10000000,1) / cll=0,0 / min-luma=0 / max-luma=1023 / log2-max-poc-lsb=8 / vui-timing-info / vui-hrd-info / slices=1 / no-opt-qp-pps / no-opt-ref-list-length-pps / no-multi-pass-opt-rps / scenecut-bias=0.05 / hist-threshold=0.03 / no-opt-cu-delta-qp / no-aq-motion / hdr10 / hdr10-opt / no-dhdr10-opt / no-idr-recovery-sei / analysis-reuse-level=0 / analysis-save-reuse-level=0 / analysis-load-reuse-level=0 / scale-factor=0 / refine-intra=0 / refine-inter=0 / refine-mv=1 / refine-ctu-distortion=0 / no-limit-sao / ctu-info=0 / no-lowpass-dct / refine-analysis-type=0 / copy-pic=1 / max-ausize-factor=1.0 / no-dynamic-refine / no-single-sei / no-hevc-aq / no-svt / no-field / qp-adaptation-range=1.00 / scenecut-aware-qp=0conformance-window-offsets / right=0 / bottom=0 / decoder-max-rate=0 / no-vbv-live-multi-pass
  24. Default : Yes
  25. Forced : No
  26. Color range : Limited
  27. Color primaries : BT.2020
  28. Transfer characteristics : PQ
  29. Matrix coefficients : BT.2020 non-constant
  30. Mastering display color primaries : Display P3
  31. Mastering display luminance : min: 0.0001 cd/m2, max: 1000 cd/m2
  32.  
  33. Audio #1
  34. ID : 2
  35. Format : MLP FBA 16-ch
  36. Format/Info : Meridian Lossless Packing FBA with 16-channel presentation
  37. Commercial name : Dolby TrueHD with Dolby Atmos
  38. Codec ID : A_TRUEHD
  39. Duration : 2 h 12 min
  40. Bit rate mode : Variable
  41. Bit rate : 4 013 kb/s
  42. Maximum bit rate : 6 744 kb/s
  43. Channel(s) : 8 channels
  44. Channel layout : L R C LFE Ls Rs Lb Rb
  45. Sampling rate : 48.0 kHz
  46. Frame rate : 1 200.000 FPS (40 SPF)
  47. Compression mode : Lossless
  48. Stream size : 3.72 GiB (32%)
  49. Title : English TrueHD Atmos 7.1
  50. Language : English
  51. Default : Yes
  52. Forced : No
  53. Number of dynamic objects : 13
  54. Bed channel count : 1 channel
  55. Bed channel configuration : LFE
  56.  
  57. Audio #2
  58. ID : 3
  59. Format : AC-3
  60. Format/Info : Audio Coding 3
  61. Commercial name : Dolby Digital
  62. Codec ID : A_AC3
  63. Duration : 2 h 12 min
  64. Bit rate mode : Constant
  65. Bit rate : 384 kb/s
  66. Channel(s) : 6 channels
  67. Channel layout : L R C LFE Ls Rs
  68. Sampling rate : 48.0 kHz
  69. Frame rate : 31.250 FPS (1536 SPF)
  70. Compression mode : Lossy
  71. Stream size : 365 MiB (3%)
  72. Title : English DD 5.1
  73. Language : English
  74. Service kind : Complete Main
  75. Default : No
  76. Forced : No
  77.  
  78. Text #1
  79. ID : 4
  80. Format : UTF-8
  81. Codec ID : S_TEXT/UTF8
  82. Codec ID/Info : UTF-8 Plain Text
  83. Duration : 2 h 7 min
  84. Bit rate : 35 b/s
  85. Frame rate : 0.130 FPS
  86. Count of elements : 989
  87. Stream size : 33.3 KiB (0%)
  88. Title : English SRT
  89. Language : English
  90. Default : Yes
  91. Forced : No
  92.  
  93. Text #2
  94. ID : 5
  95. Format : UTF-8
  96. Codec ID : S_TEXT/UTF8
  97. Codec ID/Info : UTF-8 Plain Text
  98. Duration : 2 h 10 min
  99. Bit rate : 39 b/s
  100. Frame rate : 0.163 FPS
  101. Count of elements : 1280
  102. Stream size : 37.9 KiB (0%)
  103. Title : English SDH SRT
  104. Language : English
  105. Default : No
  106. Forced : No
  107.  
  108. Menu
  109. 00:00:00.000 : en:Chapter 01
  110. 00:01:46.875 : en:Chapter 02
  111. 00:10:05.083 : en:Chapter 03
  112. 00:22:34.458 : en:Chapter 04
  113. 00:33:51.208 : en:Chapter 05
  114. 00:43:38.750 : en:Chapter 06
  115. 00:53:13.791 : en:Chapter 07
  116. 01:03:46.958 : en:Chapter 08
  117. 01:28:22.666 : en:Chapter 09
  118. 01:43:23.875 : en:Chapter 10
  119. 01:53:07.875 : en:Chapter 11
  120. 02:00:49.916 : en:Chapter 12
Advertisement
Add Comment
Please, Sign In to add comment
Advertisement