daily pastebin goal
35%
SHARE
TWEET

Untitled

a guest Jan 12th, 2018 145 Never
Not a member of Pastebin yet? Sign Up, it unlocks many cool features!
  1. General
  2. Unique ID                                : 222627286298420919622012331665387783804 (0xA77C74A98A5214D8AAEBBB3C3045867C)
  3. Complete name                            : Inglourious Basterds 2009 (1080p x265 10bit Tigole).mkv
  4. Format                                   : Matroska
  5. Format version                           : Version 4 / Version 2
  6. File size                                : 3.06 GiB
  7. Duration                                 : 2 h 33 min
  8. Overall bit rate                         : 2 848 kb/s
  9. Movie name                               : Inglourious Basterds
  10. Encoded date                             : UTC 2016-10-02 05:45:57
  11. Writing application                      : mkvmerge v9.2.0 ('Photograph') 64bit
  12. Writing library                          : libebml v1.3.3 + libmatroska v1.4.4
  13.  
  14. Video
  15. ID                                       : 1
  16. Format                                   : HEVC
  17. Format/Info                              : High Efficiency Video Coding
  18. Format profile                           : Main 10@L4@Main
  19. Codec ID                                 : V_MPEGH/ISO/HEVC
  20. Duration                                 : 2 h 33 min
  21. Bit rate                                 : 2 513 kb/s
  22. Width                                    : 1 920 pixels
  23. Height                                   : 800 pixels
  24. Display aspect ratio                     : 2.40:1
  25. Frame rate mode                          : Constant
  26. Frame rate                               : 23.976 (24000/1001) FPS
  27. Color space                              : YUV
  28. Chroma subsampling                       : 4:2:0
  29. Bit depth                                : 10 bits
  30. Bits/(Pixel*Frame)                       : 0.068
  31. Stream size                              : 2.70 GiB (88%)
  32. Writing library                          : x265 2.1+2-c0d91c2b4048:[Windows][GCC 6.2.0][64 bit] 10bit
  33. Encoding settings                        : wpp / ctu=64 / min-cu-size=8 / max-tu-size=32 / tu-intra-depth=1 / tu-inter-depth=1 / me=1 / subme=2 / merange=57 / no-rect / no-amp / max-merge=2 / temporal-mvp / no-early-skip / rskip / rdpenalty=0 / no-tskip / no-tskip-fast / strong-intra-smoothing / no-lossless / no-cu-lossless / no-constrained-intra / no-fast-intra / open-gop / no-temporal-layers / interlace=0 / keyint=250 / min-keyint=23 / scenecut=40 / rc-lookahead=20 / lookahead-slices=5 / bframes=4 / bframe-bias=0 / b-adapt=2 / ref=3 / limit-refs=3 / no-limit-modes / weightp / no-weightb / aq-mode=1 / qg-size=32 / aq-strength=1.00 / cbqpoffs=0 / crqpoffs=0 / rd=3 / psy-rd=2.00 / rdoq-level=0 / psy-rdoq=0.00 / log2-max-poc-lsb=8 / no-rd-refine / signhide / deblock=0:0 / sao / no-sao-non-deblock / b-pyramid / cutree / no-intra-refresh / rc=2 / pass / bitrate=2512 / qcomp=0.60 / qpmin=0 / qpmax=69 / qpstep=4 / cplxblur=20.0 / qblur=0.5 / ipratio=1.40 / pbratio=1.30
  34. Default                                  : Yes
  35. Forced                                   : No
  36.  
  37. Audio
  38. ID                                       : 2
  39. Format                                   : AAC
  40. Format/Info                              : Advanced Audio Codec
  41. Format profile                           : LC
  42. Codec ID                                 : A_AAC
  43. Duration                                 : 2 h 33 min
  44. Bit rate                                 : 307 kb/s
  45. Channel(s)                               : 6 channels
  46. Channel positions                        : Front: L C R, Side: L R, LFE
  47. Sampling rate                            : 48.0 kHz
  48. Frame rate                               : 46.875 FPS (1024 SPF)
  49. Compression mode                         : Lossy
  50. Delay relative to video                  : 20 ms
  51. Stream size                              : 338 MiB (11%)
  52. Language                                 : English
  53. Default                                  : Yes
  54. Forced                                   : No
  55.  
  56. Text #1
  57. ID                                       : 3
  58. Format                                   : VobSub
  59. Muxing mode                              : zlib
  60. Codec ID                                 : S_VOBSUB
  61. Codec ID/Info                            : Picture based subtitle format used on DVDs
  62. Duration                                 : 2 h 28 min
  63. Bit rate                                 : 7 373 b/s
  64. Count of elements                        : 2166
  65. Stream size                              : 7.83 MiB (0%)
  66. Language                                 : English
  67. Default                                  : No
  68. Forced                                   : No
  69.  
  70. Text #2
  71. ID                                       : 4
  72. Format                                   : VobSub
  73. Muxing mode                              : zlib
  74. Codec ID                                 : S_VOBSUB
  75. Codec ID/Info                            : Picture based subtitle format used on DVDs
  76. Duration                                 : 2 h 25 min
  77. Bit rate                                 : 2 398 b/s
  78. Count of elements                        : 993
  79. Stream size                              : 2.49 MiB (0%)
  80. Language                                 : English
  81. Default                                  : No
  82. Forced                                   : Yes
  83.  
  84. Text #3
  85. ID                                       : 5
  86. Format                                   : VobSub
  87. Muxing mode                              : zlib
  88. Codec ID                                 : S_VOBSUB
  89. Codec ID/Info                            : Picture based subtitle format used on DVDs
  90. Duration                                 : 2 h 31 min
  91. Bit rate                                 : 6 667 b/s
  92. Count of elements                        : 1857
  93. Stream size                              : 7.24 MiB (0%)
  94. Language                                 : German
  95. Default                                  : No
  96. Forced                                   : No
  97.  
  98. Text #4
  99. ID                                       : 6
  100. Format                                   : VobSub
  101. Muxing mode                              : zlib
  102. Codec ID                                 : S_VOBSUB
  103. Codec ID/Info                            : Picture based subtitle format used on DVDs
  104. Duration                                 : 2 h 31 min
  105. Bit rate                                 : 4 425 b/s
  106. Count of elements                        : 1402
  107. Stream size                              : 4.80 MiB (0%)
  108. Title                                    : Forced
  109. Language                                 : German
  110. Default                                  : No
  111. Forced                                   : No
  112.  
  113. Text #5
  114. ID                                       : 7
  115. Format                                   : VobSub
  116. Muxing mode                              : zlib
  117. Codec ID                                 : S_VOBSUB
  118. Codec ID/Info                            : Picture based subtitle format used on DVDs
  119. Duration                                 : 2 h 31 min
  120. Bit rate                                 : 5 881 b/s
  121. Count of elements                        : 1820
  122. Stream size                              : 6.39 MiB (0%)
  123. Language                                 : Turkish
  124. Default                                  : No
  125. Forced                                   : No
  126.  
  127. Menu
  128. 00:00:00.000                             : en:Chapter 01
  129. 00:01:49.776                             : en:Chapter 02
  130. 00:07:05.550                             : en:Chapter 03
  131. 00:21:19.945                             : en:Chapter 04
  132. 00:24:11.992                             : en:Chapter 05
  133. 00:28:15.068                             : en:Chapter 06
  134. 00:30:18.107                             : en:Chapter 07
  135. 00:37:56.107                             : en:Chapter 08
  136. 00:41:47.087                             : en:Chapter 09
  137. 00:48:27.571                             : en:Chapter 10
  138. 00:53:52.729                             : en:Chapter 11
  139. 01:00:49.604                             : en:Chapter 12
  140. 01:04:04.507                             : en:Chapter 13
  141. 01:09:23.868                             : en:Chapter 14
  142. 01:12:16.332                             : en:Chapter 15
  143. 01:20:13.642                             : en:Chapter 16
  144. 01:33:42.491                             : en:Chapter 17
  145. 01:37:49.947                             : en:Chapter 18
  146. 01:44:39.189                             : en:Chapter 19
  147. 01:46:25.754                             : en:Chapter 20
  148. 01:51:18.171                             : en:Chapter 21
  149. 01:58:22.804                             : en:Chapter 22
  150. 02:04:26.167                             : en:Chapter 23
  151. 02:11:17.786                             : en:Chapter 24
  152. 02:17:28.573                             : en:Chapter 25
  153. 02:23:58.463                             : en:Chapter 26
  154. 02:26:34.994                             : en:Chapter 27
  155. 02:30:18.676                             : en:Chapter 28
RAW Paste Data
Top