Secasa

Untitled

Jul 11th, 2015
21
Never
Not a member of Pastebin yet? Sign Up, it unlocks many cool features!
  1. Format : Matroska
  2. Format version : Version 2
  3. File size : 3.57 GiB
  4. Duration : 1h 36mn
  5. Overall bit rate : 5 299 Kbps
  6. Movie name : sonido-tes-1080p
  7. Encoded date : UTC 2015-07-09 22:27:11
  8. Writing application : mkvmerge v5.7.0 ('The Whirlwind') built on Jul 8 2012 20:08:51
  9. Writing library : libebml v1.2.3 + libmatroska v1.3.0
  10.  
  11. Video
  12. ID : 1
  13. Format : AVC
  14. Format/Info : Advanced Video Codec
  15. Format profile : High@L4.1
  16. Format settings, CABAC : Yes
  17. Format settings, ReFrames : 2 frames
  18. Codec ID : V_MPEG4/ISO/AVC
  19. Duration : 1h 36mn
  20. Bit rate : 4 500 Kbps
  21. Width : 1 920 pixels
  22. Height : 1 080 pixels
  23. Display aspect ratio : 16:9
  24. Frame rate mode : Constant
  25. Frame rate : 23.976 fps
  26. Color space : YUV
  27. Chroma subsampling : 4:2:0
  28. Bit depth : 8 bits
  29. Scan type : Progressive
  30. Bits/(Pixel*Frame) : 0.091
  31. Stream size : 2.89 GiB (81%)
  32. Writing library : x264 core 142
  33. Encoding settings : cabac=1 / ref=1 / deblock=1:-1:-1 / analyse=0x3:0 / me=hex / subme=5 / psy=0 / mixed_ref=0 / me_range=16 / chroma_me=1 / trellis=0 / 8x8dct=1 / cqm=0 / deadzone=21,11 / fast_pskip=1 / chroma_qp_offset=0 / threads=8 / lookahead_threads=2 / sliced_threads=0 / nr=0 / decimate=1 / interlaced=0 / bluray_compat=0 / constrained_intra=0 / bframes=2 / b_pyramid=0 / b_adapt=1 / b_bias=0 / direct=1 / weightb=1 / open_gop=0 / weightp=0 / keyint=24 / keyint_min=13 / scenecut=40 / intra_refresh=0 / rc=abr / mbtree=0 / bitrate=4500 / ratetol=1.0 / qcomp=0.60 / qpmin=0 / qpmax=69 / qpstep=4 / ip_ratio=1.40 / pb_ratio=1.30 / aq=1:1.00
  34. Default : Yes
  35. Forced : No
  36. Color range : Limited
  37. Color primaries : BT.709
  38. Transfer characteristics : BT.709
  39. Matrix coefficients : BT.709
  40.  
  41. Audio #1
  42. ID : 2
  43. Format : AC-3
  44. Format/Info : Audio Coding 3
  45. Mode extension : CM (complete main)
  46. Format settings, Endianness : Big
  47. Codec ID : A_AC3
  48. Duration : 1h 36mn
  49. Bit rate mode : Constant
  50. Bit rate : 448 Kbps
  51. Channel(s) : 2 channels
  52. Channel positions : Front: L R
  53. Sampling rate : 48.0 KHz
  54. Compression mode : Lossy
  55. Stream size : 309 MiB (8%)
  56. Language : Spanish
  57. Default : No
  58. Forced : Yes
  59.  
  60. Audio #2
  61. ID : 3
  62. Format : AC-3
  63. Format/Info : Audio Coding 3
  64. Mode extension : CM (complete main)
  65. Format settings, Endianness : Big
  66. Codec ID : A_AC3
  67. Duration : 1h 36mn
  68. Bit rate mode : Constant
  69. Bit rate : 448 Kbps
  70. Channel(s) : 6 channels
  71. Channel positions : Front: L C R, Side: L R, LFE
  72. Sampling rate : 48.0 KHz
  73. Compression mode : Lossy
  74. Stream size : 309 MiB (8%)
  75. Language : English
  76. Default : No
  77. Forced : No
  78.  
  79. Text #1
  80. ID : 4
  81. Format : UTF-8
  82. Codec ID : S_TEXT/UTF8
  83. Codec ID/Info : UTF-8 Plain Text
  84. Language : Spanish
  85. Default : No
  86. Forced : No
  87.  
  88. Text #2
  89. ID : 5
  90. Format : UTF-8
  91. Codec ID : S_TEXT/UTF8
  92. Codec ID/Info : UTF-8 Plain Text
  93. Language : English
  94. Default : No
  95. Forced : No
  96.  
  97. Menu
  98. 00:00:00.000 : en:00:00:00.000
  99. 00:07:18.897 : en:00:07:18.897
  100. 00:14:25.740 : en:00:14:25.740
  101. 00:22:36.564 : en:00:22:36.564
  102. 00:31:25.092 : en:00:31:25.092
  103. 00:37:10.770 : en:00:37:10.770
  104. 00:44:59.447 : en:00:44:59.447
  105. 00:52:27.353 : en:00:52:27.353
  106. 01:00:08.688 : en:01:00:08.688
  107. 01:07:58.533 : en:01:07:58.533
  108. 01:14:30.007 : en:01:14:30.007
  109. 01:22:35.617 : en:01:22:35.617
RAW Paste Data