SHARE
TWEET

Back in Black Cuesheet

a guest Jan 14th, 2018 160 Never
Not a member of Pastebin yet? Sign Up, it unlocks many cool features!
  1. REM GENRE Hard Rock
  2. REM DATE 1980
  3. REM COMMENT "I'm a cowardly fool."
  4. PERFORMER "AC/DC"
  5. TITLE "Back in Black"
  6. FILE "1980 - Back In Black.flac" FLAC
  7.   TRACK 01 AUDIO
  8.     TITLE "Hells Bells"
  9.     PERFORMER "AC/DC"
  10.     INDEX 01 00:00:30
  11.   TRACK 02 AUDIO
  12.     TITLE "Shoot to Thrill"
  13.     PERFORMER "AC/DC"
  14.     INDEX 01 05:09:45
  15.   TRACK 03 AUDIO
  16.     TITLE "What Do You Do for Money Honey"
  17.     PERFORMER "AC/DC"
  18.     INDEX 01 10:25:42
  19.   TRACK 04 AUDIO
  20.     TITLE "Given the Dog a Bone"
  21.     PERFORMER "AC/DC"
  22.     INDEX 01 13:59:53
  23.   TRACK 05 AUDIO
  24.     TITLE "Let Me Put My Love into You"
  25.     PERFORMER "AC/DC"
  26.     INDEX 01 17:30:35
  27.   TRACK 06 AUDIO
  28.     TITLE "Back in Black"
  29.     PERFORMER "AC/DC"
  30.     INDEX 01 21:43:10
  31.   TRACK 07 AUDIO
  32.     TITLE "You Shook Me All Night Long"
  33.     PERFORMER "AC/DC"
  34.     INDEX 01 25:57:30
  35.   TRACK 08 AUDIO
  36.     TITLE "Have a Drink on Me"
  37.     PERFORMER "AC/DC"
  38.     INDEX 01 29:27:00
  39.   TRACK 09 AUDIO
  40.     TITLE "Shake a Leg"
  41.     PERFORMER "AC/DC"
  42.     INDEX 01 33:25:15
  43.   TRACK 10 AUDIO
  44.     TITLE "Rock and Roll Ain't Noise Pollution"
  45.     PERFORMER "AC/DC"
  46.     INDEX 01 37:30:00
RAW Paste Data
We use cookies for various purposes including analytics. By continuing to use Pastebin, you agree to our use of cookies as described in the Cookies Policy. OK, I Understand
 
Top