Guest User

Untitled

a guest
Apr 17th, 2015
68
Never
Not a member of Pastebin yet? Sign Up, it unlocks many cool features!
  1. General
  2. Format : MPEG-4
  3. Format profile : Base Media / Version 2
  4. Codec ID : mp42
  5. File size : 41.2 MiB
  6. Duration : 3mn 0s
  7. Overall bit rate mode : Variable
  8. Overall bit rate : 1 918 Kbps
  9. Writing application : HandBrake 6548svn 2014112401
  10.  
  11. Video
  12. ID : 1
  13. Format : AVC
  14. Format/Info : Advanced Video Codec
  15. Format profile : High@L3.1
  16. Format settings, CABAC : Yes
  17. Format settings, ReFrames : 4 frames
  18. Codec ID : avc1
  19. Codec ID/Info : Advanced Video Coding
  20. Duration : 2mn 59s
  21. Bit rate : 1 718 Kbps
  22. Width : 1 280 pixels
  23. Height : 720 pixels
  24. Display aspect ratio : 16:9
  25. Frame rate mode : Variable
  26. Frame rate : 23.946 fps
  27. Minimum frame rate : 13.699 fps
  28. Maximum frame rate : 24.390 fps
  29. Color space : YUV
  30. Chroma subsampling : 4:2:0
  31. Bit depth : 8 bits
  32. Scan type : Progressive
  33. Bits/(Pixel*Frame) : 0.078
  34. Stream size : 36.9 MiB (90%)
  35. Writing library : x264 core 142 r2479 dd79a61
  36. Encoding settings : cabac=1 / ref=1 / deblock=1:1:1 / analyse=0x3:0x113 / me=hex / subme=2 / psy=1 / psy_rd=0.40:0.00 / mixed_ref=0 / me_range=16 / chroma_me=1 / trellis=0 / 8x8dct=1 / cqm=0 / deadzone=21,11 / fast_pskip=1 / chroma_qp_offset=0 / threads=12 / lookahead_threads=4 / sliced_threads=0 / nr=0 / decimate=1 / interlaced=0 / bluray_compat=0 / constrained_intra=0 / bframes=5 / b_pyramid=2 / b_adapt=1 / b_bias=0 / direct=1 / weightb=1 / open_gop=0 / weightp=1 / keyint=240 / keyint_min=24 / scenecut=40 / intra_refresh=0 / rc_lookahead=10 / rc=crf / mbtree=1 / crf=22.0 / qcomp=0.60 / qpmin=0 / qpmax=69 / qpstep=4 / vbv_maxrate=17500 / vbv_bufsize=17500 / crf_max=0.0 / nal_hrd=none / filler=0 / ip_ratio=1.40 / aq=1:0.60
  37. Color primaries : BT.709
  38. Transfer characteristics : BT.709
  39. Matrix coefficients : BT.709
  40.  
  41. Audio
  42. ID : 2
  43. Format : AAC
  44. Format/Info : Advanced Audio Codec
  45. Format profile : LC
  46. Codec ID : 40
  47. Duration : 3mn 0s
  48. Bit rate mode : Variable
  49. Bit rate : 192 Kbps
  50. Channel(s) : 2 channels
  51. Channel positions : Front: L R
  52. Sampling rate : 44.1 KHz
  53. Compression mode : Lossy
  54. Stream size : 4.12 MiB (10%)
  55. Title : Stereo
RAW Paste Data