Susandra

Handbrake - Dray

Feb 2nd, 2016
62
Never
Not a member of Pastebin yet? Sign Up, it unlocks many cool features!
  1. 16:51:43] macgui: trying to open video_ts folder (parent directory chosen)
  2. [16:51:43] macgui: scanning titles with a duration of 10 seconds or more
  3. [16:51:43] CPU: Intel(R) Core(TM) i5-3210M CPU @ 2.50GHz
  4. [16:51:43] - Intel microarchitecture Ivy Bridge
  5. [16:51:43] - logical processor count: 4
  6. [16:51:43] OpenCL device #1: Intel HD Graphics 4000
  7. [16:51:43] - OpenCL version: 1.2
  8. [16:51:43] - driver version: 1.2(Dec 17 2015 21:11:48)
  9. [16:51:43] - device type: GPU
  10. [16:51:43] - supported: no
  11. [16:51:43] hb_scan: path=/Users/Susandra/Documents/CHI and SIGCHI/CHI 2016/Panel on John Karat/Video of John for Panel.mov, title_index=0
  12. libbluray/bdnav/index_parse.c:162: indx_parse(): error opening /Users/Susandra/Documents/CHI and SIGCHI/CHI 2016/Panel on John Karat/Video of John for Panel.mov/BDMV/index.bdmv
  13. libbluray/bdnav/index_parse.c:162: indx_parse(): error opening /Users/Susandra/Documents/CHI and SIGCHI/CHI 2016/Panel on John Karat/Video of John for Panel.mov/BDMV/BACKUP/index.bdmv
  14. libbluray/bluray.c:2182: nav_get_title_list(/Users/Susandra/Documents/CHI and SIGCHI/CHI 2016/Panel on John Karat/Video of John for Panel.mov) failed
  15. [16:51:44] bd: not a bd - trying as a stream/file instead
  16. libdvdnav: Using dvdnav version 5.0.1
  17. libdvdread: Encrypted DVD support unavailable.
  18. libdvdread:DVDOpenFileUDF:UDFFindFile /VIDEO_TS/VIDEO_TS.IFO failed
  19. libdvdread:DVDOpenFileUDF:UDFFindFile /VIDEO_TS/VIDEO_TS.BUP failed
  20. libdvdread: Can't open file VIDEO_TS.IFO.
  21. libdvdnav: vm: failed to read VIDEO_TS.IFO
  22. [16:51:44] dvd: not a dvd - trying as a stream/file instead
  23. Input #0, mov,mp4,m4a,3gp,3g2,mj2, from '/Users/Susandra/Documents/CHI and SIGCHI/CHI 2016/Panel on John Karat/Video of John for Panel.mov':
  24. Metadata:
  25. major_brand : qt
  26. minor_version : 537199360
  27. compatible_brands: qt
  28. creation_time : 2016-01-31 19:58:00
  29. comment : Microsoft PowerPoint Movie
  30. comment-eng : Microsoft PowerPoint Movie
  31. Duration: 00:00:31.11, start: 0.000000, bitrate: 1253 kb/s
  32. Stream #0.0(eng): Video: qtrle, bgra, 640x480, 1253 kb/s, 0.32 fps, 600 tbn (default)
  33. Metadata:
  34. creation_time : 2016-01-31 19:58:00
  35. Stream #0.1(eng): Video: [0][0][0][0] / 0x0000, 600 tbn (default)
  36. Metadata:
  37. creation_time : 2016-01-31 19:58:00
  38. Stream #0.2(eng): Video: [0][0][0][0] / 0x0000, 600 tbn (default)
  39. Metadata:
  40. creation_time : 2016-01-31 19:58:00
  41. [16:51:45] scan: decoding previews for title 1
  42. [16:51:46] Warning: Could not read data for preview 1, skipped
  43. [16:51:46] scan: decoding previews for title 1
  44. [16:51:46] Warning: Could not read data for preview 1, skipped
  45. [16:51:46] libhb: scan thread found 0 valid title(s)
  46. [16:51:46] macgui: ScanDone state received from fHandle
RAW Paste Data