SHARE
TWEET

Moon.Warriors.1993.1080p.BluRay.REMUX.AVC.TrueHD.5.1-BLURANiUM

a guest Jun 13th, 2019 28 Never
Not a member of Pastebin yet? Sign Up, it unlocks many cool features!
  1. General
  2. Complete name                            : Moon.Warriors.1993.1080p.BluRay.REMUX.AVC.TrueHD.5.1-BLURANiUM.mkv
  3. Format                                   : Matroska
  4. Format version                           : Version 4
  5. File size                                : 18.7 GiB
  6. Duration                                 : 1 h 26 min
  7. Overall bit rate mode                    : Variable
  8. Overall bit rate                         : 30.8 Mb/s
  9. Encoded date                             : UTC 2019-05-28 18:17:03
  10. Writing application                      : mkvmerge v34.0.0 ('Sight and Seen') 64-bit
  11. Writing library                          : libebml v1.3.7 + libmatroska v1.5.0
  12.  
  13. Video
  14. ID                                       : 1
  15. Format                                   : AVC
  16. Format/Info                              : Advanced Video Codec
  17. Format profile                           : High@L4.1
  18. Format settings                          : CABAC / 4 Ref Frames
  19. Format settings, CABAC                   : Yes
  20. Format settings, Reference frames        : 4 frames
  21. Codec ID                                 : V_MPEG4/ISO/AVC
  22. Duration                                 : 1 h 26 min
  23. Bit rate mode                            : Variable
  24. Maximum bit rate                         : 29.0 Mb/s
  25. Width                                    : 1 920 pixels
  26. Height                                   : 1 080 pixels
  27. Display aspect ratio                     : 16:9
  28. Frame rate mode                          : Constant
  29. Frame rate                               : 24.000 FPS
  30. Standard                                 : NTSC
  31. Color space                              : YUV
  32. Chroma subsampling                       : 4:2:0
  33. Bit depth                                : 8 bits
  34. Scan type                                : Progressive
  35. Title                                    : MPEG-4 AVC Video / 22360 kbps / 1080p / 24 fps / 16:9 / High Profile 4.1
  36. Language                                 : Chinese
  37. Default                                  : Yes
  38. Forced                                   : No
  39. Color range                              : Limited
  40. Color primaries                          : BT.709
  41. Transfer characteristics                 : BT.709
  42. Matrix coefficients                      : BT.709
  43.  
  44. Audio #1
  45. ID                                       : 2
  46. Format                                   : MLP FBA
  47. Format/Info                              : Meridian Lossless Packing FBA
  48. Commercial name                          : Dolby TrueHD
  49. Codec ID                                 : A_TRUEHD
  50. Duration                                 : 1 h 26 min
  51. Bit rate mode                            : Variable
  52. Maximum bit rate                         : 4 206 kb/s
  53. Channel(s)                               : 6 channels
  54. Channel layout                           : L R C LFE Ls Rs
  55. Sampling rate                            : 96.0 kHz
  56. Frame rate                               : 1 200.000 FPS (80 SPF)
  57. Compression mode                         : Lossless
  58. Title                                    : Dolby TrueHD Audio / 5.1 / 96 kHz / 3367 kbps / 16-bit
  59. Language                                 : Chinese
  60. Default                                  : Yes
  61. Forced                                   : No
  62.  
  63. Audio #2
  64. ID                                       : 3
  65. Format                                   : AC-3
  66. Format/Info                              : Audio Coding 3
  67. Commercial name                          : Dolby Digital
  68. Codec ID                                 : A_AC3
  69. Duration                                 : 1 h 26 min
  70. Bit rate mode                            : Constant
  71. Bit rate                                 : 640 kb/s
  72. Channel(s)                               : 6 channels
  73. Channel layout                           : L R C LFE Ls Rs
  74. Sampling rate                            : 48.0 kHz
  75. Frame rate                               : 31.250 FPS (1536 SPF)
  76. Bit depth                                : 16 bits
  77. Compression mode                         : Lossy
  78. Stream size                              : 397 MiB (2%)
  79. Title                                    : Compatibility Track / Dolby Digital Audio / 5.1 / 48 kHz / 640 kbps
  80. Language                                 : Chinese
  81. Service kind                             : Complete Main
  82. Default                                  : No
  83. Forced                                   : No
  84.  
  85. Audio #3
  86. ID                                       : 4
  87. Format                                   : MLP FBA
  88. Format/Info                              : Meridian Lossless Packing FBA
  89. Commercial name                          : Dolby TrueHD
  90. Codec ID                                 : A_TRUEHD
  91. Duration                                 : 1 h 26 min
  92. Bit rate mode                            : Variable
  93. Maximum bit rate                         : 5 292 kb/s
  94. Channel(s)                               : 6 channels
  95. Channel layout                           : L R C LFE Ls Rs
  96. Sampling rate                            : 96.0 kHz
  97. Frame rate                               : 1 200.000 FPS (80 SPF)
  98. Compression mode                         : Lossless
  99. Title                                    : Dolby TrueHD Audio / 5.1 / 96 kHz / 3613 kbps / 16-bit
  100. Language                                 : Chinese
  101. Default                                  : No
  102. Forced                                   : No
  103.  
  104. Audio #4
  105. ID                                       : 5
  106. Format                                   : AC-3
  107. Format/Info                              : Audio Coding 3
  108. Commercial name                          : Dolby Digital
  109. Codec ID                                 : A_AC3
  110. Duration                                 : 1 h 26 min
  111. Bit rate mode                            : Constant
  112. Bit rate                                 : 640 kb/s
  113. Channel(s)                               : 6 channels
  114. Channel layout                           : L R C LFE Ls Rs
  115. Sampling rate                            : 48.0 kHz
  116. Frame rate                               : 31.250 FPS (1536 SPF)
  117. Bit depth                                : 16 bits
  118. Compression mode                         : Lossy
  119. Stream size                              : 397 MiB (2%)
  120. Title                                    : Compatibility Track / Dolby Digital Audio / 5.1 / 48 kHz / 640 kbps
  121. Language                                 : Chinese
  122. Service kind                             : Complete Main
  123. Default                                  : No
  124. Forced                                   : No
  125.  
  126. Text #1
  127. ID                                       : 6
  128. Format                                   : PGS
  129. Codec ID                                 : S_HDMV/PGS
  130. Codec ID/Info                            : Picture based subtitle format used on BDs/HD-DVDs
  131. Language                                 : English
  132. Default                                  : Yes
  133. Forced                                   : No
  134.  
  135. Text #2
  136. ID                                       : 7
  137. Format                                   : PGS
  138. Codec ID                                 : S_HDMV/PGS
  139. Codec ID/Info                            : Picture based subtitle format used on BDs/HD-DVDs
  140. Language                                 : Chinese
  141. Default                                  : No
  142. Forced                                   : No
  143.  
  144. Text #3
  145. ID                                       : 8
  146. Format                                   : PGS
  147. Codec ID                                 : S_HDMV/PGS
  148. Codec ID/Info                            : Picture based subtitle format used on BDs/HD-DVDs
  149. Language                                 : Chinese
  150. Default                                  : No
  151. Forced                                   : No
  152.  
  153. Menu
  154. 00:00:00.000                             : en:Chapter 01
  155. 00:08:05.917                             : en:Chapter 02
  156. 00:15:18.708                             : en:Chapter 03
  157. 00:19:27.625                             : en:Chapter 04
  158. 00:29:39.250                             : en:Chapter 05
  159. 00:35:21.167                             : en:Chapter 06
  160. 00:42:40.583                             : en:Chapter 07
  161. 00:51:58.125                             : en:Chapter 08
  162. 00:56:30.375                             : en:Chapter 09
  163. 01:04:01.083                             : en:Chapter 10
  164. 01:11:20.667                             : en:Chapter 11
  165. 01:18:14.125                             : en:Chapter 12
RAW Paste Data
We use cookies for various purposes including analytics. By continuing to use Pastebin, you agree to our use of cookies as described in the Cookies Policy. OK, I Understand
 
Top