Advertisement
Hoild

Samar Antipop musicdisk FLAC capture CUE sheet

Feb 17th, 2018
339
Never
Not a member of Pastebin yet? Sign Up, it unlocks many cool features!
  1. REM GENRE Electronic
  2. REM DATE 2018
  3. REM COMMENT "ftp://ftp.untergrund.net/users/samar/Samar-Antipop-2xSID8580R5_Soundtrack.zip recorded by Slajerek/Samar, SIDFX 2x8580R5"
  4. PERFORMER "Samar"
  5. TITLE "Antipop"
  6. FILE "Samar-Antipop-2xSID8580R5_Soundtrack.flac" WAVE
  7. TRACK 01 AUDIO
  8. TITLE "Antipop Intro"
  9. PERFORMER "Jammer"
  10. INDEX 01 00:00:00
  11. TRACK 02 AUDIO
  12. TITLE "Gliding Gladly"
  13. PERFORMER "Jammer"
  14. INDEX 00 00:38:25
  15. INDEX 01 00:40:72
  16. TRACK 03 AUDIO
  17. TITLE "Phonky"
  18. PERFORMER "Hermit"
  19. INDEX 00 06:02:08
  20. INDEX 01 06:03:69
  21. TRACK 04 AUDIO
  22. TITLE "Souls Lost To Poseidon"
  23. PERFORMER "Uctumi"
  24. INDEX 00 07:52:70
  25. INDEX 01 07:53:30
  26. TRACK 05 AUDIO
  27. TITLE "Hyperdrive Splorf"
  28. PERFORMER "Mermaid"
  29. INDEX 00 10:52:42
  30. INDEX 01 10:54:24
  31. TRACK 06 AUDIO
  32. TITLE "Delta (Song of the Second Moon)"
  33. PERFORMER "Hermit"
  34. INDEX 00 15:06:37
  35. INDEX 01 15:09:24
  36. TRACK 07 AUDIO
  37. TITLE "childhood"
  38. PERFORMER "Gaetano"
  39. INDEX 00 16:24:59
  40. INDEX 01 16:25:57
  41. TRACK 08 AUDIO
  42. TITLE "Winter Rose"
  43. PERFORMER "MCH"
  44. INDEX 00 19:10:19
  45. INDEX 01 19:11:29
  46. TRACK 09 AUDIO
  47. TITLE "Robin"
  48. PERFORMER "Shogoon"
  49. INDEX 00 22:04:16
  50. INDEX 01 22:06:37
Advertisement
RAW Paste Data Copied
Advertisement