HYBRID_BEING

[BadRim] BanG Dream! - 02v3 [1080p][D2A4AF8E].mkv

Mar 2nd, 2017
194
Never
Not a member of Pastebin yet? Sign Up, it unlocks many cool features!
  1. General
  2. Unique ID : 236081227899178944535478666460717640427 (0xB19B973256F9C424A68366714EF3EAEB)
  3. Complete name : [BadRim] BanG Dream! - 02v3 [1080p][D2A4AF8E].mkv
  4. Format : Matroska
  5. Format version : Version 4 / Version 2
  6. File size : 416 MiB
  7. Duration : 24mn 0s
  8. Overall bit rate : 2 425 Kbps
  9. Encoded date : UTC 2017-02-12 02:15:25
  10. Writing application : mkvmerge v9.2.0 ('Photograph') 64bit
  11. Writing library : libebml v1.3.3 + libmatroska v1.4.4
  12. Attachments : Architex.ttf / Berlin Sans FB Regular.ttf / calibri.ttf / calibrib.ttf / georgia.ttf / georgiai.ttf / LT_0.ttf / RockoFLF-Bold.ttf
  13.  
  14. Video
  15. ID : 1
  16. Format : AVC
  17. Format/Info : Advanced Video Codec
  18. Format profile : High 10@L5.1
  19. Format settings, CABAC : Yes
  20. Format settings, ReFrames : 16 frames
  21. Codec ID : V_MPEG4/ISO/AVC
  22. Duration : 23mn 39s
  23. Bit rate : 2 249 Kbps
  24. Width : 1 920 pixels
  25. Height : 1 080 pixels
  26. Display aspect ratio : 16:9
  27. Frame rate mode : Constant
  28. Frame rate : 23.976 (24000/1001) fps
  29. Color space : YUV
  30. Chroma subsampling : 4:2:0
  31. Bit depth : 10 bits
  32. Scan type : Progressive
  33. Bits/(Pixel*Frame) : 0.045
  34. Stream size : 381 MiB (91%)
  35. Writing library : x264 core 148 r2721+55 e19946b t_mod_Custom [10-bit@all X86_64]
  36. Encoding settings : cabac=1 / ref=16 / deblock=1:0:0 / analyse=0x3:0x133 / me=umh / subme=10 / psy=1 / fade_compensate=0.60 / psy_rd=0.50:0.05 / mixed_ref=1 / me_range=24 / chroma_me=1 / trellis=2 / 8x8dct=1 / cqm=0 / deadzone=21,11 / fast_pskip=1 / chroma_qp_offset=-3 / threads=3 / lookahead_threads=1 / sliced_threads=0 / nr=0 / decimate=1 / interlaced=0 / bluray_compat=0 / stitchable=1 / constrained_intra=0 / fgo=0 / bframes=10 / b_pyramid=2 / b_adapt=2 / b_bias=0 / direct=3 / weightb=1 / open_gop=0 / weightp=2 / keyint=250 / keyint_min=23 / scenecut=40 / intra_refresh=0 / rc_lookahead=60 / rc=crf / mbtree=1 / crf=17.0000 / qcomp=0.70 / qpmin=0:0:0 / qpmax=81:81:81 / qpstep=4 / ip_ratio=1.40 / aq=3:0.70 / aq-sensitivity=10.00 / aq-factor=1.00:1.00:1.00 / aq2=0 / aq3=0
  37. Default : Yes
  38. Forced : No
  39. Color range : Limited
  40. Matrix coefficients : BT.709
  41.  
  42. Audio
  43. ID : 2
  44. Format : AAC
  45. Format/Info : Advanced Audio Codec
  46. Format profile : LC
  47. Codec ID : A_AAC
  48. Duration : 23mn 39s
  49. Bit rate : 192 Kbps
  50. Channel(s) : 2 channels
  51. Channel positions : Front: L R
  52. Sampling rate : 44.1 KHz
  53. Frame rate : 43.066 fps (1024 spf)
  54. Compression mode : Lossy
  55. Stream size : 32.9 MiB (8%)
  56. Default : Yes
  57. Forced : No
  58.  
  59. Text
  60. ID : 3
  61. Format : ASS
  62. Codec ID : S_TEXT/ASS
  63. Codec ID/Info : Advanced Sub Station Alpha
  64. Duration : 23mn 43s
  65. Bit rate : 614 bps
  66. Count of elements : 511
  67. Compression mode : Lossless
  68. Stream size : 107 KiB (0%)
  69. Language : English
  70. Default : Yes
  71. Forced : No
  72.  
  73. Menu #1
  74. 00:00:00.000 : en:Intro
  75. 00:01:02.980 : en:OP
  76. 00:02:33.028 : en:Part A
  77. 00:10:50.984 : en:Part B
  78. 00:21:16.984 : en:ED
  79. 00:22:47.032 : en:Outro
  80. 00:23:34.997 : en:Preview
  81.  
  82. Menu #2
  83. 00:00:00.000 : en:Intro
  84. 00:01:02.980 : en:OP
  85. 00:02:33.028 : en:Part A
  86. 00:10:50.984 : en:Part B
  87. 00:21:16.984 : en:ED
  88. 00:22:47.032 : en:Outro
  89. 00:23:34.997 : en:Preview
RAW Paste Data