Guest User

Handbrake padding problem

a guest
Mar 24th, 2020
62
Never
Not a member of Pastebin yet? Sign Up, it unlocks many cool features!
  1. [17:47:05] Compile-time hardening features are enabled
  2. [17:47:05] Nvenc version 9.1
  3. [17:47:09] hb_init: starting libhb thread
  4.  
  5. # Starting Scan ...
  6.  
  7. [17:47:09] CPU: AMD Ryzen 5 3600 6-Core Processor
  8. [17:47:09] - logical processor count: 12
  9. [17:47:09] Intel Quick Sync Video support: no
  10. [17:47:09] hb_scan: path=D:\whyadoesithavetobesocomplicated.mkv, title_index=0
  11. udfread ERROR: ECMA 167 Volume Recognition failed
  12. src/libbluray/disc/disc.c:323: failed opening UDF image D:\whyadoesithavetobesocomplicated.mkv
  13. src/libbluray/disc/disc.c:424: error opening file BDMV\index.bdmv
  14. src/libbluray/disc/disc.c:424: error opening file BDMV\BACKUP\index.bdmv
  15. src/libbluray/bluray.c:2585: nav_get_title_list(D:\whyadoesithavetobesocomplicated.mkv\) failed
  16. [17:47:09] bd: not a bd - trying as a stream/file instead
  17. libdvdnav: Using dvdnav version 6.0.1
  18. libdvdread: Encrypted DVD support unavailable.
  19. libdvdread:DVDOpenFileUDF:UDFFindFile /VIDEO_TS/VIDEO_TS.IFO failed
  20. libdvdread:DVDOpenFileUDF:UDFFindFile /VIDEO_TS/VIDEO_TS.BUP failed
  21. libdvdread: Can't open file VIDEO_TS.IFO.
  22. libdvdnav: vm: failed to read VIDEO_TS.IFO
  23. [17:47:09] dvd: not a dvd - trying as a stream/file instead
  24. Input #0, matroska,webm, from 'D:\whyadoesithavetobesocomplicated.mkv':
  25. Metadata:
  26. encoder : libebml v1.3.9 + libmatroska v1.5.2
  27. creation_time : 2020-01-04T18:09:47.000000Z
  28. Duration: 01:49:09.59, start: 0.000000, bitrate: 11468 kb/s
  29. Stream #0:0(eng): Video: h264 (High), yuv420p(progressive), 1296x1080, SAR 1:1 DAR 6:5, 23.98 fps, 23.98 tbr, 1k tbn, 47.95 tbc (default)
  30. Metadata:
  31. BPS-eng : 9956989
  32. DURATION-eng : 01:49:09.585000000
  33. NUMBER_OF_FRAMES-eng: 157033
  34. NUMBER_OF_BYTES-eng: 8151768438
  35. _STATISTICS_WRITING_APP-eng: mkvmerge v40.0.0 ('Old Town Road + Pony') 64-bit
  36. _STATISTICS_WRITING_DATE_UTC-eng: 2020-01-04 18:09:47
  37. _STATISTICS_TAGS-eng: BPS DURATION NUMBER_OF_FRAMES NUMBER_OF_BYTES
  38. Stream #0:1(eng): Audio: dts (DTS), 48000 Hz, 5.1(side), fltp, 1536 kb/s (default)
  39. Metadata:
  40. BPS-eng : 1508999
  41. DURATION-eng : 01:49:09.590000000
  42. NUMBER_OF_FRAMES-eng: 614024
  43. NUMBER_OF_BYTES-eng: 1235416288
  44. _STATISTICS_WRITING_APP-eng: mkvmerge v40.0.0 ('Old Town Road + Pony') 64-bit
  45. _STATISTICS_WRITING_DATE_UTC-eng: 2020-01-04 18:09:47
  46. _STATISTICS_TAGS-eng: BPS DURATION NUMBER_OF_FRAMES NUMBER_OF_BYTES
  47. [17:47:09] scan: decoding previews for title 1
  48. [17:47:09] scan: audio 0x1: dca, rate=48000Hz, bitrate=1536000 English (DTS) (5.1 ch) (1536 kbps)
  49. [17:47:10] scan: 10 previews, 1296x1080, 23.976 fps, autocrop = 0/0/0/0, aspect 1.20:1, PAR 1:1
  50. [17:47:10] scan: supported video decoders: avcodec qsv
  51. [17:47:10] libhb: scan thread found 1 valid title(s)
  52.  
  53. # Processing Scan Information ...
  54.  
  55.  
  56. # Scan Finished ...
RAW Paste Data